Andrew Brownell, Chilingirian Quartet, Sarah Pring - Ronald Corp: Letters from Lony (2019) [Official Digital Download 24/96]

Posted By: SERTiL
Andrew Brownell, Chilingirian Quartet, Sarah Pring - Ronald Corp: Letters from Lony (2019) [Official Digital Download 24/96]

Andrew Brownell, Chilingirian Quartet, Sarah Pring - Ronald Corp: Letters from Lony (2019)
FLAC (tracks) 24-bit/96 kHz | Time - 67:40 minutes | 1.06 GB
Studio Master, Official Digital Download | Artwork: Digital Booklet

Letters from Lony tells the story of Leonie (‘Lony’) Rabl in her own words. A German- Jewish exile from Nazism, she ran the Café de Paris in Amsterdam, writing when she could to her daughter and family, safe in England; two further letters survive from after her deportation, on the journey that took her via Theresienstadt to Auschwitz. Ronald Corp sets Lony’s letters as accompanied arioso, all the more moving for its understatement.

Tracklist:
1. No. 1, 13 September 1939 01:53
2. No. 1a, Lullaby 01:29
3. No. 2, 28 September 1939 02:28
4. No. 3, 16 November 1939 02:22
5. No. 4, 3 December 1939 01:36
6. No. 5, 18 December 1939 02:59
7. No. 5a, Interlude 01:31
8. No. 6, 11 February 1940 06:25
9. No. 7, 5 May 1940 to Annemarie 03:42
10. No. 7a, Interlude. 10 May 1940 01:19
11. No. 8, 26 September 1940 to the Family 02:19
12. No. 9, Undated, 1940 to the Family 01:37
13. No. 10, Undated, Probably About 9 November 1940 to Annemarie 03:25
14. No. 11, Undated, Probably Later in November 1940 to the Family 02:05
15. No. 11a, Interlude 02:59
16. No. 12, 11 February 1941 to Peter 05:43
17. No. 13, Unknown Date, Believed to be 7 December 1940 to Annemarie 02:22
18. No. 14, 1 October 1941 to Bachmann 05:42
19. No. 15, 6 January 1942 Card Addressed to Hans from Bachmann in Lony’s Name 02:13
20. No. 15a, Interlude 03:16
21. No. 16, 30 December 1943, from Westerbork Camp to Josef Blum 02:58
22. No. 17, 23 February 1944, from Westerbork Camp to Josef Blum 07:17

Personnel:
Sarah Pring, mezzo-soprano
Chilingirian Quartet
Levon Chilingirian, violin
Ronald Birks, violin
Susie Mészáros, viola
Stephen Orton, cello
Andrew Brownell, piano

foobar2000 1.3.7 / Dynamic Range Meter 1.1.1
log date: 2019-01-09 19:04:26

––––––––––––––––––––––––––––––––––––––––
Analyzed: Chilingirian Quartet / Ronald Corp: Letters from Lony (1-4)
Sarah Pring / Ronald Corp: Letters from Lony (5-22)
––––––––––––––––––––––––––––––––––––––––

DR Peak RMS Duration Track
––––––––––––––––––––––––––––––––––––––––
DR12 -4.81 dB -22.10 dB 1:31 07-No. 5a, Interlude
DR13 -3.48 dB -22.27 dB 1:19 10-No. 7a, Interlude. 10 May 1940
DR11 -18.40 dB -34.25 dB 2:59 15-No. 11a, Interlude
DR11 -20.25 dB -36.83 dB 3:17 20-No. 15a, Interlude
DR15 -7.67 dB -32.76 dB 1:53 01-No. 1, 13 September 1939
DR12 -17.53 dB -34.81 dB 1:30 02-No. 1a, Lullaby
DR14 -5.56 dB -25.07 dB 2:29 03-No. 2, 28 September 1939
DR14 -5.36 dB -25.44 dB 2:22 04-No. 3, 16 November 1939
DR14 -6.74 dB -25.96 dB 1:36 05-No. 4, 3 December 1939
DR17 -3.83 dB -28.40 dB 3:00 06-No. 5, 18 December 1939
DR16 -4.26 dB -28.21 dB 6:25 08-No. 6, 11 February 1940
DR14 -9.07 dB -28.14 dB 3:43 09-No. 7, 5 May 1940 to Annemarie
DR14 -6.89 dB -25.94 dB 2:20 11-No. 8, 26 September 1940 to the Family
DR13 -2.17 dB -22.69 dB 1:37 12-No. 9, Undated, 1940 to the Family
DR15 -5.58 dB -26.71 dB 3:25 13-No. 10, Undated, Probably About 9 November 1940 to Annemarie
DR15 -8.41 dB -32.90 dB 2:05 14-No. 11, Undated, Probably Later in November 1940 to the Family
DR16 -4.65 dB -27.61 dB 5:43 16-No. 12, 11 February 1941 to Peter
DR14 -3.25 dB -22.97 dB 2:22 17-No. 13, Unknown Date, Believed to be 7 December 1940 to Annemarie
DR15 -2.26 dB -27.12 dB 5:43 18-No. 14, 1 October 1941 to Bachmann
DR15 -9.26 dB -30.91 dB 2:14 19-No. 15, 6 January 1942 Card Addressed to Hans from Bachmann in Lony’s Name
DR15 -8.12 dB -29.62 dB 2:58 21-No. 16, 30 December 1943, from Westerbork Camp to Josef Blum
DR16 -4.60 dB -29.80 dB 7:17 22-No. 17, 23 February 1944, from Westerbork Camp to Josef Blum
––––––––––––––––––––––––––––––––––––––––

Number of tracks: 22
Official DR value: DR14

Samplerate: 96000 Hz
Channels: 2
Bits per sample: 24
Bitrate: 2105 kbps
Codec: FLAC
================================================================================


Thanks to the Original customer.