Christophe Panzani - Les Mauvais Tempéraments (2019) [Official Digital Download]

Posted By: SERTiL
Christophe Panzani - Les Mauvais Tempéraments (2019) [Official Digital Download]

Christophe Panzani - Les Mauvais Tempéraments (2019)
FLAC (tracks) 24-bit/44.1 kHz | Time - 54:07 minutes | 490 MB
Studio Master, Official Digital Download | Artwork: Front Cover

Christophe Panzani, one of France's most in demand saxophonists (heard with drummer Anne Paceo, the bands Hocus Pocus, Thiefs, The Drops). A true musical quest, in which the saxophonist explores the possibilities of combining the sound of his tenor to the piano, opening the sound spectrum of jazz in a very unusual way by using ancient tunings on the piano. Nine tracks featuring an amazing cast of talented pianists, from ECM-recording artist Yonathan Avishai to the pop-singer turned pianist Yael Naim, including keyboard electronic-influenced NYC wizard BIGYUKI, Edouard Ferlet (known for his reworking of Bach's music), Eric Legnini (one of France's finest jazz pianists), Brazilian-born Leonardo Montana, Tony Paeleman (from Vincent Peirani's band) and Guillaume Poncelet (a frequent collaborator of Gaël Faye).


Tracklist:
1. Ahijado (Feat. Eric Legnini)
2. Le Désordre Des Choses (Feat. Yonathan Avishai & Leonardo Montana)
3. Les Mauvais Tempéraments (Feat. Yael Naim)
4. I Don't Feel No Home (Feat. Guillaume Poncelet)
5. Ravage (Feat. BIGYUKI)
6. Des Âmes Toutes Faites (Feat. Tony Paeleman)
7. Les Mauvais Tempéraments (Feat. Yonathan Avishai & Leonardo Montana)
8. Le Désordre Des Choses (Feat. Yonathan Avishai & Leonardo Montana)
9. Ahijado (Feat. Yonathan Avishai)

foobar2000 1.3.7 / Dynamic Range Meter 1.1.1
log date: 2019-11-08 22:32:45

––––––––––––––––––––––––––––––––––––––––
Analyzed: Christophe Panzani feat. BIGYUKI / Les Mauvais Tempéraments (1)
Christophe Panzani feat. Édouard Ferlet & Tony Paeleman / Les Mauvais Tempéraments (2)
Christophe Panzani feat. Eric Legnini / Les Mauvais Tempéraments (3)
Christophe Panzani feat. Guillaume Poncelet / Les Mauvais Tempéraments (4)
Christophe Panzani feat. Tony Paeleman / Les Mauvais Tempéraments (5)
Christophe Panzani feat. Yael Naïm / Les Mauvais Tempéraments (6)
Christophe Panzani feat. Yonathan Avishai & Leonardo Montana / Les Mauvais Tempéraments (7-9)
Christophe Panzani feat. Yonathan Avishai / Les Mauvais Tempéraments (10)
––––––––––––––––––––––––––––––––––––––––

DR Peak RMS Duration Track
––––––––––––––––––––––––––––––––––––––––
DR11 -3.14 dB -15.58 dB 4:07 06-Ravage
DR10 -2.11 dB -16.05 dB 5:57 05-L'Autre, Miroir
DR10 -3.24 dB -16.14 dB 5:24 01-Ahijado I
DR10 -1.79 dB -15.85 dB 3:48 04-I Don't Feel No Home
DR12 -0.51 dB -15.64 dB 6:36 07-Des âmes toutes faites
DR11 -2.23 dB -17.87 dB 5:34 03-Les Mauvais Tempéraments I
DR11 -0.50 dB -14.11 dB 6:07 02-Le Désordre des choses I
DR10 -1.65 dB -16.58 dB 5:52 08-Les Mauvais Tempéraments II
DR11 -0.51 dB -14.59 dB 5:45 09-Le Désordre des choses II
DR11 -0.84 dB -15.58 dB 5:03 10-Ahijado II
––––––––––––––––––––––––––––––––––––––––

Number of tracks: 10
Official DR value: DR11

Samplerate: 44100 Hz
Channels: 2
Bits per sample: 24
Bitrate: 1216 kbps
Codec: FLAC
================================================================================


Thanks to the Original customer.