Johnny Cash - American Recordings I-VI (European Box Set Vinyl) (2015) [FLAC] [24/96 Vinyl Rip]

Posted By: shamanicus
Johnny Cash - American Recordings I-VI (European Box Set Vinyl) (2015) [FLAC] [24/96 Vinyl Rip]

Johnny Cash - American Recordings I-VI (European Box Set Vinyl) (2015)
Vinyl | FLAC (tracks) 24-bit/96kHz & 16-bit/44,1kHz | 5151 & 1352 mb | Artwork: front covers
Contry, Country-Pop | Label: 2015 / American Recordings / 060254721702 / Original European Pressing

All six of the iconic Johnny Cash American Recordings LP's are now available in their entirety in one box for the first time. Produced by legendary producer Rick Rubin these 6 180gsm LP's are housed in a beautiful 12x12 cloth covered box.
Albums included are: American Recordings (1994), Unchained (1996), American III: Solitary Man (2000), American IV: The Man Comes Around (2002), American V: A Hundred Highways (2006), American IV: Ain't No Grave (2010).

Some of the tracks included on these albums are: Delia's Gone, The Man Who Couldn't Cry, Rusty Cage, I've Been Everywhere, The Man Comes Around, Personal Jesus, God's Gonna Cut You Down, Love's Been Good To Me, Help Me, Ain't No Grave, Redemption Day and the legendary version of Hurt.


All six American Recordings titles of Johnny Cash are available in their entirety in one box for ther first time. Ever-prolific singer/songwriter Johnny Cash special Limited Edition repressings of 6 titles which include American Recordings, Unchained, American III: Solitary Man, American IV: The Man Comes Around, American V: A Hundred Highways & American VI: Ain't No Grave.

In the early '90s, Johnny Cash signed to Rick Rubin's American label and began releasing the American Recordings series of albums. Produced by Rubin, the American Recordings were stark, stripped-down, mostly acoustic meditations on the more apocalyptic side of his persona, writes Rolling Stone. Cash covered Beck, Nick Cave, Bonnie "Prince" Billy, Soundgarden, Danzig, and, of course, Nine Inch Nails' "Hurt." And he cemented his reputation as one of the reigning badasses in American music history — not that that rep really needed much help.

These are acoustic roots-radical albums on hip hop/metal producer Rick Rubin's label of the same name. The albums wonderfully capture Cash's famous baritone as powerful as ever. The set includes American Recordings, Unchained, Solitary Man, The Man Comes Around, American V: A Hundred Highways and the final chapter and last recording in the series, American VI: Ain't No Grave.

Topping out on the C&W chart at No. 23 and lingering on the pop chart for nine weeks, American Recordings also took home a Grammy for Best Contemporary Folk Album. In addition to Cash originals like "Let The Train Blow the Whistle," "Drive On," "Redemption," and "Like A Soldier," the intimate 13-song set features stirring covers of songs by artists of all backgrounds including Nick Lowe ("The Beast In Me"), Kris Kristofferson ("Why Me Lord"), Glenn Danzig ("Thirteen"), Leonard Cohen ("Bird On A Wire"), Tom Waits ("Down There By the Train") and Loudon Wainwright III ("The Man Who Couldn't Cry").

Cash returned with its equally as impressive follow-up Unchained in 1996. Whereas American Recordings featured Johnny unaccompanied on acoustic guitar, Unchained finds the music legend backed by Tom Petty and the Heartbreakers and Marty Stuart. The heartfelt 14-song set again consists of a mix of Cash originals like "Country Boy," "Mean Eyed Cat" and "Meet Me in Heaven" and effective covers of material by a diverse selection of artists including Beck ("Rowboat"), Soundgarden ("Rusty Cage") and Tom Petty ("Southern Accents") among others. Unchained became Cash's second straight Grammy-winning album, this time for Best Country Album.

After rejuvenating his career with the two Grammy winning albums American Recordings (1994) and Unchained (1996), Johnny took a four year break due to health reasons before returning in 2000 for his third release in the series, Solitary Man. This time around Cash performs his originals/covers program unaccompanied as well as duets with guest artists like Tom Petty, June Carter, Merle Haggard, Sheryl Crow and Will Oldham. Along with his own compositions "Field of Diamonds," "Before My Time," "Country Trash" and I'm Leavin' Now," the 14-song set features Cash's moving takes on U2's "One," Tom Petty's "I Won't Back Down," Neil Diamond's "Solitary Man," and Will Oldham's "I See A Darkness." Cash was awarded a Grammy for Best Male Country Vocal Performance for his version of Diamond's "Solitary Man," his third straight album to take home hardware from the prestigious institution.

2002's The Man Comes Around is the fourth in the series of excellent collaborations with Rubin and the last released before his death in 2003. The Man Comes Around includes new Cash compositions like the title track and revisits of older material such as "Give My Love To Rose" and "Tear Stained Letter" as well as a diverse array of cover songs including Nine Inch Nails’ "Hurt," Depeche Mode's "Personal Jesus," Simon & Garfunkel’s "Bridge Over Troubled Water" with Fiona Apple, the Eagles "Desperado" with Don Henley, and Hank Williams' "I'm So Lonesome I Could Cry" with Nick Cave. The Man Comes Around also continued Cash's Grammy winning streak, taking home awards for Best Country Male Vocal Performance for "Give My Love To Rose" and Best Short Form Video for the moving music video for "Hurt."

Cash's first posthumous release, American V: A Hundred Highways (2006) debuted at No. 1 on both the Billboard Top 200 and the Country Albums chart, and contains 12 tracks recorded in 2002-2003 including the original, “Like The 309” (the last song that Johnny wrote and recorded before he died). American VI: Ain't No Grave (2010) is the final chapter and last recordings in the illustrious series. Recorded during the same 2002-2003 sessions that produced its predecessor American V: A Hundred Highways, Ame


Limited Edition 7LP Box Set
Audiophile 180 Gram vinyl
All six of Cash's American Recordings albums
Mastered by Chris Bellman at Bernie Grundman Mastering
Cut from the original masters supervised by Rick Rubin


Johnny Cash - American Recordings I-VI (European Box Set Vinyl) (2015) [FLAC] [24/96 Vinyl Rip]


American I: American Recordings

Johnny Cash - American Recordings I-VI (European Box Set Vinyl) (2015) [FLAC] [24/96 Vinyl Rip]


1. Delia's Gone
2. Let The Train Blow The Whistle
3. The Beast In Me
4. Drive On
5. Why Me Lord
6. Thirteen
7. Oh, Bury Me Not (Introduction: A Cowboy's Prayer)
8. Bird On A Wire
9. Tennessee Stud
10. Down There By The Train
11. Redemption
12. Like A Soldier
13. The Man Who Couldn't Cry

American II: Unchained

Johnny Cash - American Recordings I-VI (European Box Set Vinyl) (2015) [FLAC] [24/96 Vinyl Rip]


1. Rowboat
2. Sea Of Heartbreak
3. Rusty Cage
4. The One Rose (That's Left In My Heart)
5. Country Boy
6. Memories Are Made Of This
7. Spiritual
8. The Kneeling Drunkard's Plea
9. Southern Accents
10. Mean Eyed Cat
11. Meet Me In Heaven
12. I Never Picked Cotton
13. Unchained
14. I've Been Everywhere

American III: Solitary Man

Johnny Cash - American Recordings I-VI (European Box Set Vinyl) (2015) [FLAC] [24/96 Vinyl Rip]


1. I Won't Back Down
2. Solitary Man
3. That Lucky Old Sun (Just Rolls Around Heaven All Day)
4. One
5. Nobody
6. I See A Darkness
7. The Mercy Seat
8. Would You Lay With Me (In A Field Of Stone)
9. Field Of Diamonds
10. Before My Time
11. Country Trash
12. Mary Of The Wild Moor
13. I'm Leavin' Now
14. Wayfaring Stranger

American IV: The Man Comes Around

Johnny Cash - American Recordings I-VI (European Box Set Vinyl) (2015) [FLAC] [24/96 Vinyl Rip]


1. The Man Comes Around
2. Hurt
3. Give My Love To Rose
4. Bridge Over Troubled Water
5. I Hung My Head
6. First Time Ever I Saw Your Face
7. Personal Jesus
8. In My Life
9. Sam Hall
10. Danny Boy
11. Desperado
12. I'm So Lonesome I Could Cry
13. Tear Stained Letter
14. Streets Of Laredo
15. We'll Meet Again

American V: A Hundred Highways

Johnny Cash - American Recordings I-VI (European Box Set Vinyl) (2015) [FLAC] [24/96 Vinyl Rip]


1. Help Me
2. God's Gonna Cut You Down
3. Like The 309
4. If You Could Read My Mind
5. Further On Up The Road
6. On The Evening Train
7. I Came To Believe
8. Love's Been Good To Me
9. A Legend In My Time
10. Rose Of My Heart
11. Four Strong Winds
12. I'm Free From The Chain Gang Now

American VI: Ain’t No Grave

Johnny Cash - American Recordings I-VI (European Box Set Vinyl) (2015) [FLAC] [24/96 Vinyl Rip]


1. Ain't No Grave
2. Redemption Day
3. For The Good Times
4. I Corinthians 15:55
5. Can't Help But Wonder Where I'm Bound
6. Satisfied Mind
7. I Don't Hurt Anymore
8. Cool Water
9. Last Night I Had The Strangest Dream
10. Aloha Oe


Johnny Cash - American Recordings I-VI (European Box Set Vinyl) (2015) [FLAC] [24/96 Vinyl Rip]



foobar2000 1.4 / Dynamic Range Meter 1.1.1
log date: 2020-01-16 22:51:27

––––––––––––––––––––––––––––––––––––––––
Analyzed: Johnny Cash / American I: American Recordings (2015 Box Set Reissue Vinyl)
––––––––––––––––––––––––––––––––––––––––

DR Peak RMS Duration Track
––––––––––––––––––––––––––––––––––––––––
DR11 -3.22 dB -20.82 dB 2:18 01-Delia's Gone
DR12 -6.38 dB -22.06 dB 2:15 02-Let The Train Blow The Whistle
DR13 -7.16 dB -24.19 dB 2:45 03-The Beast In Me
DR12 -8.25 dB -22.57 dB 2:24 04-Drive On
DR12 -7.72 dB -24.24 dB 2:20 05-Why Me Lord
DR12 -7.95 dB -23.00 dB 2:30 06-Thirteen
DR12 -10.49 dB -24.96 dB 3:52 07-Oh Bury Me Not
DR14 -7.04 dB -24.46 dB 4:01 08-Bird On A Wire
DR12 -9.34 dB -24.62 dB 2:55 09-Tennessee Stud
DR12 -5.62 dB -22.19 dB 5:34 10-Down There By The Train
DR11 -8.11 dB -22.73 dB 3:02 11-Redemption
DR12 -9.65 dB -23.65 dB 2:51 12-Like A Soldier
DR16 -5.63 dB -24.66 dB 4:59 13-The Man Who Couldn't Cry
––––––––––––––––––––––––––––––––––––––––

Number of tracks: 13
Official DR value: DR12

Samplerate: 96000 Hz
Channels: 2
Bits per sample: 24
Bitrate: 2506 kbps
Codec: FLAC
================================================================================

––––––––––––––––––––––––––––––––––––––––
Analyzed: Johnny Cash / American II: Unchained (2015 Box Set Reissue Vinyl)
––––––––––––––––––––––––––––––––––––––––

DR Peak RMS Duration Track
––––––––––––––––––––––––––––––––––––––––
DR13 -4.59 dB -18.85 dB 3:44 01-Rowboat
DR13 -4.12 dB -18.67 dB 2:41 02-Sea Of Heartbreak
DR12 -4.12 dB -18.12 dB 2:50 03-Rusty Cage
DR13 -7.40 dB -22.58 dB 2:26 04-The One Rose (That's Left In My Heart)
DR10 -5.94 dB -17.89 dB 2:31 05-Country Boy
DR11 -6.95 dB -20.06 dB 2:19 06-Memories Are Made Of This
DR12 -6.21 dB -20.97 dB 5:07 07-Spiritual
DR12 -5.11 dB -18.15 dB 2:32 08-The Kneeling Drunkard's Plea
DR12 -5.11 dB -19.72 dB 4:41 09-Southern Accents
DR11 -5.71 dB -18.13 dB 2:33 10-Mean Eyed Cat
DR10 -6.74 dB -19.69 dB 3:21 11-Meet Me In Heaven
DR11 -4.09 dB -18.19 dB 2:39 12-I Never Picked Cotton
DR11 -6.34 dB -19.02 dB 2:51 13-Unchained
DR10 -4.51 dB -18.10 dB 3:16 14-I've Been Everywhere
––––––––––––––––––––––––––––––––––––––––

Number of tracks: 14
Official DR value: DR11

Samplerate: 96000 Hz
Channels: 2
Bits per sample: 24
Bitrate: 2883 kbps
Codec: FLAC
================================================================================

––––––––––––––––––––––––––––––––––––––––
Analyzed: Johnny Cash / American III: Solitary Man (2015 Box Set Reissue Vinyl)
––––––––––––––––––––––––––––––––––––––––

DR Peak RMS Duration Track
––––––––––––––––––––––––––––––––––––––––
DR12 -2.12 dB -18.83 dB 2:09 01-I Won't Back Down
DR15 -0.91 dB -17.99 dB 2:26 02-Solitary Man
DR12 -6.83 dB -21.64 dB 2:36 03-That Lucky Old Sun (Just Rolls Around Heaven All Day)
DR11 -5.36 dB -18.97 dB 3:53 04-One
DR11 -6.48 dB -19.35 dB 3:14 05-Nobody
DR9 -6.33 dB -19.23 dB 3:42 06-I See A Darkness
DR9 -3.63 dB -18.16 dB 4:35 07-The Mercy Seat
DR11 -2.91 dB -20.65 dB 2:42 08-Would You Lay With Me (In A Field Of Stone)
DR12 -5.22 dB -20.98 dB 3:15 09-Field Of Diamonds
DR11 -2.60 dB -21.39 dB 2:56 10-Before My Time
DR12 -6.44 dB -21.01 dB 1:47 11-Country Trash
DR11 -6.95 dB -20.42 dB 2:32 12-Mary Of The Wild Moor
DR12 -4.84 dB -21.31 dB 3:08 13-I'm Leavin' Now
DR10 -7.66 dB -19.93 dB 3:21 14-Wayfaring Stranger
––––––––––––––––––––––––––––––––––––––––

Number of tracks: 14
Official DR value: DR11

Samplerate: 96000 Hz
Channels: 2
Bits per sample: 24
Bitrate: 2655 kbps
Codec: FLAC
================================================================================

––––––––––––––––––––––––––––––––––––––––
Analyzed: Johnny Cash / American IV: The Man Comes Around (2015 Box Set Reissue Vinyl)
––––––––––––––––––––––––––––––––––––––––

DR Peak RMS Duration Track
––––––––––––––––––––––––––––––––––––––––
DR12 -3.90 dB -17.98 dB 4:25 01-The Man Comes Around
DR9 -5.54 dB -18.80 dB 3:36 02-Hurt
DR10 -8.44 dB -21.80 dB 3:27 03-Give My Love To Rose
DR11 -3.08 dB -19.37 dB 3:54 04-Bridge Over Troubled Water (feat. Fiona Apple)
DR9 -6.63 dB -17.60 dB 3:52 05-I Hung My Head
DR12 -6.74 dB -22.36 dB 3:52 06-First Time Ever I Saw Your Face
DR9 -7.23 dB -18.30 dB 3:21 07-Personal Jesus
DR13 -3.49 dB -21.74 dB 2:57 08-In My Life
DR10 -5.61 dB -17.92 dB 2:39 09-Sam Hall
DR11 -4.83 dB -20.48 dB 3:18 10-Danny Boy
DR10 -8.52 dB -20.15 dB 3:13 11-Desperado (feat. Don Henley)
DR11 -2.24 dB -21.36 dB 3:03 12-I'm So Lonesome I Could Cry (feat. Nick Cave)
DR12 -2.37 dB -19.60 dB 3:39 13-Tear Stained Letter
DR11 -1.75 dB -20.43 dB 3:33 14-Streets Of Laredo
DR9 -8.05 dB -20.21 dB 2:59 15-We'll Meet Again
––––––––––––––––––––––––––––––––––––––––

Number of tracks: 15
Official DR value: DR10

Samplerate: 96000 Hz
Channels: 2
Bits per sample: 24
Bitrate: 2611 kbps
Codec: FLAC
================================================================================

––––––––––––––––––––––––––––––––––––––––
Analyzed: Johnny Cash / American V: A Hundred Highways (2015 Box Set Reissue Vinyl)
––––––––––––––––––––––––––––––––––––––––

DR Peak RMS Duration Track
––––––––––––––––––––––––––––––––––––––––
DR10 -7.00 dB -21.19 dB 2:51 01-Help Me
DR11 -5.40 dB -18.15 dB 2:38 02-God's Gonna Cut You Down
DR11 -4.77 dB -19.39 dB 4:35 03-Like The 309
DR11 -6.88 dB -20.49 dB 4:29 04-If You Could Read My Mind
DR11 -7.02 dB -20.30 dB 3:25 05-Further On Up The Road
DR10 -7.22 dB -20.02 dB 4:18 06-On The Evening Train
DR11 -7.37 dB -20.45 dB 3:45 07-I Came To Believe
DR10 -7.19 dB -19.67 dB 3:19 08-Love's Been Good To Me
DR12 -7.12 dB -21.00 dB 2:35 09-A Legend In My Time
DR10 -8.16 dB -20.43 dB 3:19 10-Rose Of My Heart
DR11 -7.14 dB -21.42 dB 4:34 11-Four Strong Winds
DR10 -2.98 dB -19.27 dB 3:01 12-I'm Free From The Chain Gang Now
––––––––––––––––––––––––––––––––––––––––

Number of tracks: 12
Official DR value: DR11

Samplerate: 96000 Hz
Channels: 2
Bits per sample: 24
Bitrate: 2606 kbps
Codec: FLAC
================================================================================

––––––––––––––––––––––––––––––––––––––––
Analyzed: Johnny Cash / American VI: Ain't No Grave (2015 Box Set Reissue Vinyl)
––––––––––––––––––––––––––––––––––––––––

DR Peak RMS Duration Track
––––––––––––––––––––––––––––––––––––––––
DR11 -4.72 dB -18.23 dB 2:54 01-Ain't No Grave
DR10 -5.32 dB -19.07 dB 4:21 02-Redemption Day
DR10 -7.12 dB -19.11 dB 3:21 03-For The Good Times
DR10 -3.98 dB -19.32 dB 3:39 04-I Corinthians, 15:55
DR10 -6.44 dB -19.59 dB 3:25 05-Can't Help But Wonder Where I'm Bound
DR10 -7.81 dB -20.82 dB 2:48 06-Satisfied Mind
DR10 -7.44 dB -19.81 dB 2:45 07-I Don't Hurt Anymore
DR10 -6.79 dB -20.08 dB 2:53 08-Cool Water
DR10 -6.87 dB -19.05 dB 3:14 09-Last Night I Had The Strangest Dream
DR10 -6.80 dB -19.87 dB 3:00 10-Aloha Oe
––––––––––––––––––––––––––––––––––––––––

Number of tracks: 10
Official DR value: DR10

Samplerate: 96000 Hz
Channels: 2
Bits per sample: 24
Bitrate: 2687 kbps
Codec: FLAC
================================================================================


Thanks to the Original customer.