John Debney - Isn't It Romantic (Original Motion Picture Soundtrack) (2019) [Official Digital Download]

Posted By: Pisulik
John Debney - Isn't It Romantic (Original Motion Picture Soundtrack) (2019) [Official Digital Download]

John Debney - Isn't It Romantic (Original Motion Picture Soundtrack) (2019)
FLAC (tracks) 24-bit/48 kHz | Time - 47:15 minutes | 510 MB
Studio Master, Official Digital Download | Artwork: Front cover

Original Motion Picture Soundtrack (OST) from the movie Isn’t It Romantic (2019). Film music composed by John Debney, who known for Madden NFL 18 Longshot: Homecoming, The Jungle Book, Ice Age: Collision Course. Isn’t It Romantic is a 2019 American romantic comedy film (Valentines Day 2019), written by Erin Cardillo, Dana Fox, Katie Silberman and Paula Pell, directed by Todd Strauss-Schulson. The film stars Rebel Wilson, Adam DeVine, Liam Hemsworth, Priyanka Chopra, Betty Gilpin.

Tracklist:

1. I Wanna Dance with Somebody (Who Loves Me) – Rebel Wilson, Adam Devine, Priyanka Chopra
2. Express Yourself – Rebel Wilson, Liam Hemsworth, Adam Devine, Priyanka Chopra, Betty Gilpin, Brandon Scott Jones
3. My Way (Remix) – Alana D
4. Wake Up / Off to Work
5. Park Walk and Talk
6. Office Talk
7. Subway Meeting / Mugged
8. Chance Meeting
9. Strange New Apartment
10. My Life’s a Rom Com!
11. Beach Walk
12. The Weird Subway
13. He Thinks I’m Beautiful
14. The Tango
15. Dream Date
16. Love Theme
17. Flying to the Wedding
18. Never Asked Me Out
19. The Park Stroll
20. It Was Me All Along
21. Back to Reality
22. My True Self
23. I Was Looking at You
24. You Saw the Real Me

foobar2000 1.3.7 / Dynamic Range Meter 1.1.1
log date: 2019-03-18 03:23:34

––––––––––––––––––––––––––––––––––––––––
Analyzed: Alana D / Isn't It Romantic (Original Motion Picture Soundtrack) (1)
John Debney / Isn't It Romantic (Original Motion Picture Soundtrack) (2-22)
Rebel Wilson / Isn't It Romantic (Original Motion Picture Soundtrack) (23-24)
––––––––––––––––––––––––––––––––––––––––

DR Peak RMS Duration Track
––––––––––––––––––––––––––––––––––––––––
DR6 -0.49 dB -7.88 dB 2:57 03-My Way
DR8 -0.47 dB -12.77 dB 1:38 04-Wake Up / Off to Work
DR10 -1.04 dB -17.54 dB 1:13 05-Park Walk and Talk
DR10 -0.49 dB -13.87 dB 1:45 06-Office Talk
DR11 -0.50 dB -16.30 dB 2:32 07-Subway Meeting / Mugged
DR11 -0.49 dB -15.89 dB 2:18 08-Chance Meeting
DR12 -2.16 dB -19.80 dB 2:04 09-Strange New Apartment
DR11 -0.49 dB -16.25 dB 1:49 10-My Life's a Rom Com!
DR10 -0.49 dB -15.82 dB 3:59 11-Beach Walk
DR10 -0.55 dB -16.03 dB 2:09 12-The Weird Subway
DR11 -7.81 dB -21.90 dB 1:43 13-He Thinks I'm Beautiful
DR12 -0.50 dB -18.14 dB 1:31 14-The Tango
DR12 -0.50 dB -18.33 dB 1:42 15-Dream Date
DR9 -6.14 dB -19.41 dB 1:31 16-Love Theme
DR10 -0.50 dB -15.99 dB 1:20 17-Flying to the Wedding
DR9 -0.50 dB -21.80 dB 1:25 18-Never Asked Me Out
DR11 -4.08 dB -18.53 dB 1:31 19-The Park Stroll
DR13 -0.50 dB -20.09 dB 3:06 20-It Was Me All Along
DR10 -4.20 dB -19.00 dB 0:49 21-Back to Reality
DR9 -2.85 dB -15.47 dB 1:36 22-My True Self
DR12 -0.50 dB -17.56 dB 1:30 23-I Was Looking at You
DR12 -0.50 dB -17.08 dB 1:16 24-You Saw the Real Me
DR7 -0.48 dB -10.43 dB 3:28 01-I Wanna Dance with Somebody (Who Loves Me)
DR7 -0.49 dB -9.26 dB 2:25 02-Express Yourself
––––––––––––––––––––––––––––––––––––––––

Number of tracks: 24
Official DR value: DR10

Samplerate: 48000 Hz
Channels: 2
Bits per sample: 24
Bitrate: 1780 kbps
Codec: FLAC
================================================================================


All thanks go to the original releaser