Tags
Language
Tags
April 2024
Su Mo Tu We Th Fr Sa
31 1 2 3 4 5 6
7 8 9 10 11 12 13
14 15 16 17 18 19 20
21 22 23 24 25 26 27
28 29 30 1 2 3 4

Ionella Marinutsa, Mikhail Suguko - Tishchenko: Complete Works for Harp (2020) [24-48]

Posted By: shamanicus
Ionella Marinutsa, Mikhail Suguko - Tishchenko: Complete Works for Harp (2020) [24-48]

Ionella Marinutsa, International Parisian Symphony Orchestra & Mikhail Suguko - Tishchenko: Complete Works for Harp (2020)
FLAC (tracks) 24-bit/48 kHz | 53:22 | 510 mb
Studio Master, Official Digital Download | Artwork: front cover, d.booklet

Boris Tishchenko, often considered to be the direct musical heir of Shostakovich, maintained a prolific output across all genres. The concise vocal trios – one written in memory of the composer’s brother – are alternately plaintive and urgent. The five movements of the Harp Concerto are played without pause, and the work is significant for expanding the harp’s expressive range and requiring the soloist to alternate between two instruments.

Tracklist:

01. To My Brother, Op. 98
02. The Will, Op. 96
03. I. Moderato
04. II. Allegro con molto
05. III. Moderato
06. IV. Intermezzo
07. V. Andante

Ionella Marinutsa, Mikhail Suguko - Tishchenko: Complete Works for Harp (2020) [24-48]



foobar2000 1.4 / Dynamic Range Meter 1.1.1
log date: 2020-01-27 19:16:32

––––––––––––––––––––––––––––––––––––––––
Analyzed: Ionella Marinutsa / Tishchenko: Complete Works for Harp (1-5)
Mikhail Lermontov / Tishchenko: Complete Works for Harp (6)
Nikolai Zabolotsky / Tishchenko: Complete Works for Harp (7)
––––––––––––––––––––––––––––––––––––––––

DR Peak RMS Duration Track
––––––––––––––––––––––––––––––––––––––––
DR13 -4.46 dB -24.58 dB 10:30 03-I. Moderato
DR15 -1.46 dB -20.70 dB 11:04 04-II. Allegro con molto
DR13 -1.45 dB -18.68 dB 7:30 05-III. Moderato
DR12 -8.57 dB -26.16 dB 4:44 06-IV. Intermezzo
DR12 -1.36 dB -20.29 dB 8:37 07-V. Andante
DR14 -0.23 dB -20.16 dB 6:44 01-To My Brother, Op. 98
DR12 -0.24 dB -16.08 dB 4:14 02-The Will, Op. 96
––––––––––––––––––––––––––––––––––––––––

Number of tracks: 7
Official DR value: DR13

Samplerate: 48000 Hz
Channels: 2
Bits per sample: 24
Bitrate: 1359 kbps
Codec: FLAC
================================================================================




Thanks to the Original customer.