Please register here if you want to download anything!

If domain in your address bar is different from the list below
PLEASE LEAVE THAT SITE IMMEDIATELY
❗IT'S A DANGEROUS FAKE❗



Spicy Magazines for Men! ;-)

Eddie Daniels & Harlem Quartet - Heart of Brazil (2019) [Official Digital Download 24/192]

Posted By: SERTiL
Eddie Daniels & Harlem Quartet - Heart of Brazil (2019) [Official Digital Download 24/192]

Eddie Daniels & Harlem Quartet - Heart of Brazil (2019)
FLAC (tracks) 24-bit/192 kHz | Time - 76:59 minutes | 5.03 GB
Studio Master, Official Digital Download | Artwork: Digital Booklet

Off the heels of 2017’s acclaimed archival release Just Friends – Live at the Village Vanguard from 1988, jazz clarinet icon Eddie Daniels has a new, exceptional project.

"In Heart of Brazil", Eddie Daniels pays tribute to the world-renowned Brazilian composer and multi-instrumentalist, Egberto Gismonti, featureing Daniels with the top-shelf trio of pianist Josh Nelson, bassist Kevin Axt and drummer Mauricio Zottarelli, plus the Grammy Award-winning Harlem Quartet. With new arrangements by Ted Nash, Kuno Schmid and Josh Nelson, Heart of Brazil collects songs from Gismonti’s classic early 1970s albums on Odeon/EMI Records, such as his self-titled 1973 album, Água & Vinho (1972), Corações Futuristas(1976), Carmo (1977) and others. Gismonti says in his interview with acclaimed author James Gavin, “When I heard the record I felt immense joy…The repertoire spans a rich period of my composing. What a great present for my seventy years of life.”

Tracklist:
1. Lôro 05:08
2. Baião Malandro 05:51
3. Água e Vinho 06:07
4. Ciranda 05:11
5. Folia 04:23
6. Maracatú 05:52
7. Adágio 05:59
8. Tango Nova 05:45
9. Chôro 06:02
10. Tango 04:40
11. Cigana 07:36
12. Trem Noturno 07:44
13. Auto-Retrato 06:44

Personnel:
Eddie Daniels, clarinet, tenor saxophone
Josh Nelson, piano
Kevin Axt, bass
Mauricio Zottarelli, drums
Harlem Quartet:
Ilmar Gavilán, violin
Melissa White, violin
Jamey Amador, viola
Felix Umansky, cello

Digitally remastered

foobar2000 1.3.7 / Dynamic Range Meter 1.1.1
log date: 2019-02-11 13:30:45

––––––––––––––––––––––––––––––––––––––––
Analyzed: Eddie Daniels, Harlem Quartet / Heart of Brazil
––––––––––––––––––––––––––––––––––––––––

DR Peak RMS Duration Track
––––––––––––––––––––––––––––––––––––––––
DR10 -2.77 dB -15.46 dB 5:08 01-Lôro
DR10 -2.14 dB -14.93 dB 5:51 02-Baião Malandro
DR11 -2.51 dB -16.60 dB 6:09 03-Água e Vinho
DR10 -2.64 dB -16.34 dB 5:11 04-Ciranda
DR10 -2.24 dB -15.31 dB 4:22 05-Folia
DR9 -2.57 dB -15.68 dB 5:53 06-Maracatú
DR10 -2.42 dB -15.71 dB 5:59 07-Adágio
DR10 -2.43 dB -15.13 dB 5:46 08-Tango Nova
DR10 -2.79 dB -15.97 dB 6:02 09-Chôro
DR11 -2.71 dB -18.23 dB 4:40 10-Tango
DR10 -4.33 dB -18.17 dB 7:36 11-Cigana
DR11 -2.53 dB -17.20 dB 7:44 12-Trem Noturno
DR11 -2.62 dB -16.78 dB 6:46 13-Auto-Retrato
––––––––––––––––––––––––––––––––––––––––

Number of tracks: 13
Official DR value: DR10

Samplerate: 192000 Hz
Channels: 2
Bits per sample: 24
Bitrate: 9232 kbps
Codec: FLAC
================================================================================


Thanks to the Original customer.