Cyprien Katsaris & Hélène Mercier - Brahms: 21 Hungarian Dances & 16 Waltzes for Piano Four (2018) [Official Digital Download]

Posted By: SERTiL
Cyprien Katsaris & Hélène Mercier - Brahms: 21 Hungarian Dances & 16 Waltzes for Piano Four (2018) [Official Digital Download]

Cyprien Katsaris & Hélène Mercier - Brahms: 21 Hungarian Dances & 16 Waltzes for Piano Four (2018)
FLAC (tracks) 24-bit/44.1 kHz | Time - 70:19 minutes | 580 MB
Studio Master, Official Digital Download | Artwork: Digital Booklet

“Exceedingly satisfied with our musical collaboration on our Brahms/Schumann recording, I suggested to Helene Mercier that we take on the complete cycles of Brahms’s 21 Hungarian Dances and 16 Waltzes, Op.39, which, unlike me, she had already played in concert.

It was extremely important to both of us that the gypsy spirit was to the fore in the Hungarian Dances, likewise Viennese elegance in the Waltzes. I must humbly acknowledge how impressed I was by my Quebecoise partner’s level of understanding of this very distinctive music. All her musical suggestions that broke with the usual rules made sense, and we tried never to lose sight of the improvisatory character symbolising the freedom of the Gypsies.” (Cyprien Katsaris)

Tracklist:
1. 16 Waltzes, Op. 39: No. 3 in G-Sharp Minor 01:13
2. 16 Waltzes, Op. 39: No. 5 in E Major 01:18
3. 16 Waltzes, Op. 39: No. 6 in C-Sharp Major 01:02
4. 21 Hungarian Dances, WoO 1: No. 3 in F Major 02:24
5. 21 Hungarian Dances, WoO 1: No. 4 in F Minor 04:15
6. 21 Hungarian Dances, WoO 1: No. 5 in F-Sharp Minor 02:07
7. 21 Hungarian Dances, WoO 1: No. 6 in D-Flat Major 03:05
8. 21 Hungarian Dances, WoO 1: No. 7 in A Major 01:34
9. 21 Hungarian Dances, WoO 1: No. 8 in A Minor 02:38
10. 16 Waltzes, Op. 39: No. 7 in C-Sharp Minor 02:18
11. 16 Waltzes, Op. 39: No. 8 in B-Flat Major 01:09
12. 16 Waltzes, Op. 39: No. 14 in A Minor 01:30
13. 16 Waltzes, Op. 39: No. 4 in E Minor 01:16
14. 21 Hungarian Dances, WoO 1: No. 9 in E Minor 01:50
15. 16 Waltzes, Op. 39: No. 9 in D Minor 01:14
16. 16 Waltzes, Op. 39: No. 10 in G Major 00:36
17. 21 Hungarian Dances, WoO 1: No. 10 in E Major 01:51
18. 16 Waltzes, Op. 39: No. 15 in A Major 01:28
19. 16 Waltzes, Op. 39: No. 1 in B Major 00:52
20. 21 Hungarian Dances, WoO 1: No. 1 in G Minor 02:39
21. 21 Hungarian Dances, WoO 1: No. 2 in D Minor 03:20
22. 16 Waltzes, Op. 39: No. 16 in D Minor 01:11
23. 21 Hungarian Dances, WoO 1: No. 11 in D Minor 03:07
24. 21 Hungarian Dances, WoO 1: No. 12 in D Minor 02:24
25. 21 Hungarian Dances, WoO 1: No. 13 in D Major 01:32
26. 21 Hungarian Dances, WoO 1: No. 14 in D Minor 01:46
27. 21 Hungarian Dances, WoO 1: No. 15 in B-Flat Major 02:20
28. 21 Hungarian Dances, WoO 1: No. 16 in F Minor 02:19
29. 21 Hungarian Dances, WoO 1: No. 17 in F-Sharp Minor 03:09
30. 21 Hungarian Dances, WoO 1: No. 18 in D Major 01:27
31. 16 Waltzes, Op. 39: No. 11 in B Minor 01:33
32. 16 Waltzes, Op. 39: No. 12 in E Major 01:42
33. 16 Waltzes, Op. 39: No. 13 in C Major 00:46
34. 21 Hungarian Dances, WoO 1: No. 19 in B Minor 01:50
35. 16 Waltzes, Op. 39: No. 2 in E Major 01:32
36. 21 Hungarian Dances, WoO 1: No. 20 in E Minor 02:37
37. 21 Hungarian Dances, WoO 1: No. 21 in E Minor 01:25

Personnel:
Hélène Mercier, piano
Cyprien Katsaris, piano

foobar2000 1.3.7 / Dynamic Range Meter 1.1.1
log date: 2018-08-24 16:35:33

––––––––––––––––––––––––––––––––––––––––
Analyzed: Cyprien Katsaris & Hélène Mercier / Brahms: 21 Hungarian Dances & 16 Waltzes for Piano Four Hands
––––––––––––––––––––––––––––––––––––––––

DR Peak RMS Duration Track
––––––––––––––––––––––––––––––––––––––––
DR12 -13.77 dB -29.49 dB 1:13 01-Brahms: 16 Waltzes, Op. 39: No. 3 in G-Sharp Minor
DR12 -8.73 dB -25.18 dB 1:18 02-Brahms: 16 Waltzes, Op. 39: No. 5 in E Major
DR12 -5.94 dB -22.56 dB 1:02 03-Brahms: 16 Waltzes, Op. 39: No. 6 in C-Sharp Major
DR14 -0.67 dB -23.30 dB 2:24 04-Brahms: 21 Hungarian Dances, WoO 1: No. 3 in F Major
DR14 -2.73 dB -20.11 dB 4:15 05-Brahms: 21 Hungarian Dances, WoO 1: No. 4 in F Minor
DR13 -3.59 dB -21.38 dB 2:07 06-Brahms: 21 Hungarian Dances, WoO 1: No. 5 in F-Sharp Minor
DR14 -2.32 dB -20.58 dB 3:06 07-Brahms: 21 Hungarian Dances, WoO 1: No. 6 in D-Flat Major
DR14 -3.54 dB -22.28 dB 1:34 08-Brahms: 21 Hungarian Dances, WoO 1: No. 7 in A Major
DR14 -2.00 dB -20.47 dB 2:38 09-Brahms: 21 Hungarian Dances, WoO 1: No. 8 in A Minor
DR13 -6.54 dB -24.61 dB 2:19 10-Brahms: 16 Waltzes, Op. 39: No. 7 in C-Sharp Minor
DR12 -9.08 dB -24.97 dB 1:10 11-Brahms: 16 Waltzes, Op. 39: No. 8 in B-Flat Major
DR12 -3.86 dB -19.85 dB 1:30 12-Brahms: 16 Waltzes, Op. 39: No. 14 in A Minor
DR12 -3.34 dB -19.72 dB 1:16 13-Brahms: 16 Waltzes, Op. 39: No. 4 in E Minor
DR13 -3.81 dB -21.13 dB 1:50 14-Brahms: 21 Hungarian Dances, WoO 1: No. 9 in E Minor
DR12 -12.54 dB -28.97 dB 1:15 15-Brahms: 16 Waltzes, Op. 39: No. 9 in D Minor
DR11 -11.65 dB -26.24 dB 0:37 16-Brahms: 16 Waltzes, Op. 39: No. 10 in G Major
DR13 -2.20 dB -20.03 dB 1:52 17-Brahms: 21 Hungarian Dances, WoO 1: No. 10 in E Major
DR12 -11.81 dB -28.25 dB 1:28 18-Brahms: 16 Waltzes, Op. 39: No. 15 in A Major
DR11 -6.45 dB -20.74 dB 0:52 19-Brahms: 16 Waltzes, Op. 39: No. 1 in B Major
DR14 -1.06 dB -20.48 dB 2:40 20-Brahms: 21 Hungarian Dances, WoO 1: No. 1 in G Minor
DR13 -4.41 dB -22.31 dB 3:21 21-Brahms: 21 Hungarian Dances, WoO 1: No. 2 in D Minor
DR12 -8.20 dB -27.44 dB 1:12 22-Brahms: 16 Waltzes, Op. 39: No. 16 in D Minor
DR12 -5.92 dB -24.87 dB 3:07 23-Brahms: 21 Hungarian Dances, WoO 1: No. 11 in D Minor
DR13 -4.10 dB -22.18 dB 2:25 24-Brahms: 21 Hungarian Dances, WoO 1: No. 12 in D Minor
DR15 -2.14 dB -23.74 dB 1:32 25-Brahms: 21 Hungarian Dances, WoO 1: No. 13 in D Major
DR12 -4.28 dB -22.82 dB 1:46 26-Brahms: 21 Hungarian Dances, WoO 1: No. 14 in D Minor
DR14 -0.69 dB -19.63 dB 2:20 27-Brahms: 21 Hungarian Dances, WoO 1: No. 15 in B-Flat Major
DR13 -6.16 dB -23.66 dB 2:19 28-Brahms: 21 Hungarian Dances, WoO 1: No. 16 in F Minor
DR14 -2.01 dB -21.82 dB 3:09 29-Brahms: 21 Hungarian Dances, WoO 1: No. 17 in F-Sharp Minor
DR12 -2.77 dB -20.20 dB 1:28 30-Brahms: 21 Hungarian Dances, WoO 1: No. 18 in D Major
DR12 -7.48 dB -24.41 dB 1:34 31-Brahms: 16 Waltzes, Op. 39: No. 11 in B Minor
DR13 -7.45 dB -25.00 dB 1:42 32-Brahms: 16 Waltzes, Op. 39: No. 12 in E Major
DR13 -4.41 dB -19.67 dB 0:47 33-Brahms: 16 Waltzes, Op. 39: No. 13 in C Major
DR13 -0.09 dB -20.97 dB 1:50 34-Brahms: 21 Hungarian Dances, WoO 1: No. 19 in B Minor
DR11 -10.60 dB -26.15 dB 1:32 35-Brahms: 16 Waltzes, Op. 39: No. 2 in E Major
DR14 -4.32 dB -25.40 dB 2:38 36-Brahms: 21 Hungarian Dances, WoO 1: No. 20 in E Minor
DR12 -3.64 dB -20.73 dB 1:25 37-Brahms: 21 Hungarian Dances, WoO 1: No. 21 in E Minor
––––––––––––––––––––––––––––––––––––––––

Number of tracks: 37
Official DR value: DR13

Samplerate: 44100 Hz
Channels: 2
Bits per sample: 24
Bitrate: 1174 kbps
Codec: FLAC
================================================================================


Thanks to the Original customer.