Tags
Language
Tags

Collegium Vocale Gent, Philippe Herreweghe - J.S.Bach: Ach Susser Trost! Leipzig Cantatas (2012) [Official Digital Download]

Posted By: SERTiL
Collegium Vocale Gent, Philippe Herreweghe - J.S.Bach: Ach Susser Trost! Leipzig Cantatas (2012) [Official Digital Download]

Collegium Vocale Gent, Philippe Herreweghe - J.S.Bach: Ach Susser Trost! Leipzig Cantatas (2012)
FLAC (tracks) 24-bit/88.2 kHz | Time - 67:10 minutes | 1.03 GB
Studio Master, Official Digital Download | Artwork: Digital booklet

The four cantatas selected by Philippe Herreweghe for this recording date from the first year of Bach s activity in Leipzig. Written at a tight pace between late July and early September 1723, they underscore the composer s obvious effort to establish original musical proposals. He continually showed musicians and listeners that he was not serving them routine cantor s music, but was writing sacred music as a true Kapellmeister. In this first volume of Bach cantatas for the PHI label, the Collegium Vocale Gent interprets some of the cantatas for the first time.

TRACKLIST

Johann Sebastian Bach (1685-1750)

Cantata BWV 25 - Es ist nichts Gesundes an meinem Leibe
1. Coro - Es ist nichts Gesundes an meinem Leibe 4’45
2. Recitativo: tenor - Die ganze Welt ist nur ein Hospital 1’31
3. Aria: bass - Ach, wo hol ich Armer Rat? 2’37
4. Recitativo: soprano - O Jesu, lieber Meister 1’12
5. Aria: soprano - Öffne meinen schlechten Liedern 3’05
6. Choral - Ich will alle meine Tage 0’59

Cantata BWV 138 - Warum betrübst du dich, mein Herz?
7. Coro & recitativo: tenor, alto - Warum betrübst du dich, mein Herz? 4’05
8. Recitativo: bass - Ich bin veracht’ 0’51
9. Coro & recitativo: soprano, alto - Er kann und will dich lassen nicht 2’59
10. Recitativo: tenor - Ach süßer Trost! Wenn Gott mich nicht verlassen 1’02
11. Aria: bass - Auf Gott steht meine Zuversicht 4’38
12. Recitativo: alto - Ei nun! So will ich auch recht sanfte ruhn 0’24
13. Choral - Weil du mein Gott und Vater bist 1’55

Cantata BWV 105 - Herr, gehe nicht ins Gericht mit deinem Knecht
14. Coro - Herr, gehe nicht ins Gericht mit deinem Knecht 4’59
15. Recitativo: alto - Mein Gott, verwirf mich nicht 0’55
16. Aria: soprano - Wie zittern und wanken 5’31
17. Recitativo: bass - Wohl aber dem, der seinen Bürgen weiß 1’57
18. Aria: tenor - Kann ich nur Jesum mir zum Freunde machen 5’35
19. Choral - Nun, ich weiß, du wirst mir stillen 1’37

Cantata BWV 46 - Schauet doch und sehet, ob irgendein Schmerz sei
20. Coro - Schauet doch und sehet, ob irgendein Schmerz sei 5’29
21. Recitativo: tenor - So klage du, zerstörte Gottesstadt 1’34
22. Aria: bass - Dein Wetter zog sich auf von weiten 3’18
23. Recitativo: alto - Doch bildet euch, o Sünder, ja nicht ein 0’40
24. Aria: alto - Doch Jesus will auch bei der Strafe 3’44
25. Choral - O großer Gott von Treu 1’33

PERSONNEL
Soprano: Hana Blažiková
Alto: Damien Guillon
Tenor: Thomas Hobbs
Bass: Peter Kooij

Collegium Vocale Gent
Philippe Herreweghe, conductor

foobar2000 1.3.7 / Dynamic Range Meter 1.1.1
log date: 2017-05-11 13:02:09

––––––––––––––––––––––––––––––––––––––––
Analyzed: Philippe Herreweghe / Johann Sebastian Bach - Ach süßer Trost !
––––––––––––––––––––––––––––––––––––––––

DR Peak RMS Duration Track
––––––––––––––––––––––––––––––––––––––––
DR13 -0.09 dB -17.68 dB 4:45 01-Cantata "Es ist nichts Gesundes an meinem Leibe", BWV 25 (Coro): I. Es ist nichts Gesundes an meinem Leibe
DR17 -2.46 dB -25.32 dB 1:32 02-(Recitativo: tenor): II. Die ganze Welt ist nur ein Hospital
DR15 -6.30 dB -25.29 dB 2:37 03-(Aria: bass): III. Ach, wo hol ich Armer Rat?
DR14 -2.68 dB -22.74 dB 1:12 04-(Recitativo: soprano): IV. O Jesu, lieber Meister
DR14 -2.57 dB -21.17 dB 3:05 05-(Aria: soprano): V. Öffne meinen schlechten Liedern
DR13 -0.60 dB -15.87 dB 1:07 06-(Choral): VI. Ich will alle meine Tage
DR13 -2.54 dB -20.96 dB 4:06 07-Cantata "Warum betrübst du dich, mein Herz?", BWV 138 (Coro & recitativo: tenor, alto): I. Warum betrübst du dich, mein Herz?
DR12 -0.23 dB -23.48 dB 0:51 08-(Recitativo: bass): II. Ich bin veracht'
DR13 -0.63 dB -19.93 dB 2:59 09-(Coro & recitativo: soprano, alto): III. Er kann und will dich lassen nicht
DR12 -5.17 dB -26.10 dB 1:02 10-(Recitativo: tenor): IV. Ach süßer Trost! Wenn Gott mich nicht verlassen
DR14 -4.36 dB -23.27 dB 4:38 11-(Aria: bass): V. Auf Gott steht meine Zuversicht
DR8 -4.04 dB -27.18 dB 0:24 12-(Recitativo: alto): VI. Ei nun! So will ich auch recht sanfte ruhn
DR12 -2.14 dB -20.69 dB 2:03 13-(Choral): VII. Weil du mein Gott und Vater bist
DR14 -0.21 dB -19.23 dB 4:59 14-Cantata "Herr, gehe nicht ins Gericht mit deinem Knecht", BWV 105 (Coro): I. Herr, gehe nicht ins Gericht mit deinem Knecht
DR16 -4.09 dB -25.86 dB 0:55 15-(Recitativo: alto): II. Mein Gott, verwirf mich nicht
DR15 -4.15 dB -24.58 dB 5:31 16-(Aria: soprano): III. Wie zittern und wanken
DR14 -7.44 dB -26.37 dB 1:57 17-(Recitativo: bass): IV. Wohl aber dem, der seinen Bürgen weiß
DR15 -3.28 dB -22.11 dB 5:35 18-(Aria: tenor): V. Kann ich nur Jesum mir zum Freunde machen
DR12 -3.37 dB -21.13 dB 1:45 19-(Choral): VI. Nun, ich weiß, du wirst mir stillen
DR13 -0.24 dB -17.61 dB 5:30 20-Cantata "Schauet doch und sehet, ob irgendein Schmerz sei", BWV 46 (Coro): I. Schauet doch und sehet, ob irgendein Schmerz sei
DR14 -3.47 dB -22.92 dB 1:34 21-(Recitativo: tenor): II. So klage du, zerstörte Gottesstadt
DR14 -2.96 dB -20.18 dB 3:19 22-(Aria: bass): III. Dein Wetter zog sich auf von weiten
DR14 -6.64 dB -24.37 dB 0:40 23-(Recitativo: alto): IV. Doch bildet euch, o Sünder, ja nicht ein
DR14 -5.34 dB -23.27 dB 3:44 24-(Aria: alto): V. Doch Jesus will auch bei der Strafe
DR13 -2.48 dB -19.43 dB 1:33 25-(Choral): VI. O großer Gott von Treu
––––––––––––––––––––––––––––––––––––––––

Number of tracks: 25
Official DR value: DR13

Samplerate: 88200 Hz
Channels: 2
Bits per sample: 24
Bitrate: 2152 kbps
Codec: FLAC
================================================================================


Collegium Vocale Gent, Philippe Herreweghe - J.S.Bach: Ach Susser Trost! Leipzig Cantatas (2012) [Official Digital Download]


Thanks to the Original customer.