Tags
Language
Tags

Wildes Russland / Wild Russia. Episode 6 - Kamchatka / Дикая природа России. Серия 6 - Камчатка (2008) [ReUp]

Posted By: RSU75
Wildes Russland / Wild Russia. Episode 6 - Kamchatka / Дикая природа России. Серия 6 - Камчатка (2008) [ReUp]

Wildes Russland / Wild Russia. Episode 6 - Kamchatka / Дикая природа России. Серия 6 - Камчатка (2008)
BDRip | MKV | AVC 1280x712, ~ 6.8 Mbps | 0hr 44mn | 3.40 GB
English: DTS, 6 ch, 1510 kbps; English \ German \ Russian (2 translations): AC3, 6 ch, 640 kbps
Subtitles: English, German, Russian
Genre: Documentary


Director: Tobias Mennle, Ivo Nörenberg
Stars: Christian Brückner, Jason Hildebrandt, Paterson Joseph

A unique journey into the most remote and unexplored corners of Russia…

Season 1, Episode 6 - Kamchatka: Kamtschatka, a Russian Far Eastern peninsula of Siberia stretching into the Sea of Ochotsk towards Japan, has a rich wildlife subject to (by Siberian standards not so) extreme seasonal extremes. The short summer a,d intermediate seasons are abundant, the long winter almost as grim as in permafrost.

Subtitles in other languages: subtitleseeker.com



General
Unique ID : 246651064344583453923139543925148561021 (0xB98F445E4810C8F088BCD4B4C6B72E7D)
Complete name : D:\WildR.08.E6.Kamchatka.7p.All1.V2.mkv
Format : Matroska
Format version : Version 4 / Version 2
File size : 3.40 GiB
Duration : 44mn 34s
Overall bit rate : 10.9 Mbps
Movie name : Avaxhome.cc
Encoded date : UTC 2014-02-03 18:48:03
Writing application : mkvmerge v6.3.0 ('You can't stop me!') built on Jun 28 2013 20:09:41
Writing library : libebml v1.3.0 + libmatroska v1.4.0

Video
ID : 1
Format : AVC
Format/Info : Advanced Video Codec
Format profile : High@L4.1
Format settings, CABAC : Yes
Format settings, ReFrames : 9 frames
Codec ID : V_MPEG4/ISO/AVC
Duration : 44mn 34s
Bit rate : 6 838 Kbps
Width : 1 280 pixels
Height : 712 pixels
Display aspect ratio : 16:9
Frame rate mode : Constant
Frame rate : 25.000 fps
Color space : YUV
Chroma subsampling : 4:2:0
Bit depth : 8 bits
Scan type : Progressive
Bits/(Pixel*Frame) : 0.300
Stream size : 2.06 GiB (61%)
Title : Episode 6: Kamchatka
Writing library : x264 core 80 r1376M 3feaec2
Encoding settings : cabac=1 / ref=9 / deblock=1:-3:-3 / analyse=0x3:0x113 / me=umh / subme=10 / psy=1 / psy_rd=0.8:0.1 / mixed_ref=1 / me_range=48 / chroma_me=1 / trellis=2 / 8x8dct=1 / cqm=0 / deadzone=21,11 / fast_pskip=0 / chroma_qp_offset=-3 / threads=6 / sliced_threads=0 / nr=0 / decimate=0 / mbaff=0 / constrained_intra=0 / bframes=12 / b_pyramid=2 / b_adapt=2 / b_bias=0 / direct=3 / wpredb=1 / wpredp=2 / keyint=250 / keyint_min=25 / scenecut=40 / rc=2pass / mbtree=0 / bitrate=6838 / ratetol=1.0 / qcomp=0.60 / qpmin=10 / qpmax=51 / qpstep=4 / cplxblur=20.0 / qblur=0.5 / ip_ratio=1.40 / pb_ratio=1.30 / aq=1:0.70
Language : English
Default : Yes
Forced : No

Audio #1
ID : 2
Format : DTS
Format/Info : Digital Theater Systems
Mode : 16
Format settings, Endianness : Big
Codec ID : A_DTS
Duration : 44mn 34s
Bit rate mode : Constant
Bit rate : 1 509 Kbps
Channel(s) : 6 channels
Channel positions : Front: L C R, Side: L R, LFE
Sampling rate : 48.0 KHz
Bit depth : 24 bits
Compression mode : Lossy
Stream size : 481 MiB (14%)
Title : DTS 5.1 1536 kbps
Language : English
Default : Yes
Forced : No

Audio #2
ID : 3
Format : AC-3
Format/Info : Audio Coding 3
Mode extension : CM (complete main)
Format settings, Endianness : Big
Codec ID : A_AC3
Duration : 44mn 34s
Bit rate mode : Constant
Bit rate : 640 Kbps
Channel(s) : 6 channels
Channel positions : Front: L C R, Side: L R, LFE
Sampling rate : 48.0 KHz
Bit depth : 16 bits
Compression mode : Lossy
Stream size : 204 MiB (6%)
Title : AC3 5.1 640 kbps
Language : English
Default : No
Forced : No

Audio #3
ID : 4
Format : AC-3
Format/Info : Audio Coding 3
Mode extension : CM (complete main)
Format settings, Endianness : Big
Codec ID : A_AC3
Duration : 44mn 34s
Bit rate mode : Constant
Bit rate : 640 Kbps
Channel(s) : 6 channels
Channel positions : Front: L C R, Side: L R, LFE
Sampling rate : 48.0 KHz
Bit depth : 16 bits
Compression mode : Lossy
Stream size : 204 MiB (6%)
Title : AC3 5.1 640 kbps
Language : German
Default : No
Forced : No

Audio #4
ID : 5
Format : AC-3
Format/Info : Audio Coding 3
Mode extension : CM (complete main)
Format settings, Endianness : Big
Codec ID : A_AC3
Duration : 44mn 34s
Bit rate mode : Constant
Bit rate : 640 Kbps
Channel(s) : 6 channels
Channel positions : Front: L C R, Side: L R, LFE
Sampling rate : 48.0 KHz
Bit depth : 16 bits
Compression mode : Lossy
Stream size : 204 MiB (6%)
Title : AC3 5.1 640 kbps Одноголосый закадровый, Н.Козий
Language : Russian
Default : No
Forced : No

Audio #5
ID : 6
Format : AC-3
Format/Info : Audio Coding 3
Mode extension : CM (complete main)
Format settings, Endianness : Big
Codec ID : A_AC3
Duration : 44mn 34s
Bit rate mode : Constant
Bit rate : 640 Kbps
Channel(s) : 6 channels
Channel positions : Front: L C R, Side: L R, LFE
Sampling rate : 48.0 KHz
Bit depth : 16 bits
Compression mode : Lossy
Stream size : 204 MiB (6%)
Title : AC3 5.1 640 kbps Одноголосый закадровый, Курдов
Language : Russian
Default : No
Forced : No

Text #1
ID : 7
Format : UTF-8
Codec ID : S_TEXT/UTF8
Codec ID/Info : UTF-8 Plain Text
Language : English
Default : No
Forced : No

Text #2
ID : 8
Format : UTF-8
Codec ID : S_TEXT/UTF8
Codec ID/Info : UTF-8 Plain Text
Language : German
Default : No
Forced : No

Text #3
ID : 9
Format : UTF-8
Codec ID : S_TEXT/UTF8
Codec ID/Info : UTF-8 Plain Text
Language : Russian
Default : No
Forced : No

Menu
00:00:00.000 : en:00:00:00.000
00:08:43.639 : en:00:08:43.639
00:17:55.799 : en:00:17:55.799
00:26:59.799 : en:00:26:59.799
00:37:17.079 : en:00:37:17.079
00:44:11.800 : en:00:44:11.800





Название: Дикая природа России
Оригинальное название: Wildes Russland / Wild Russia
Год выпуска: 2008
Жанр: Документальный
Выпущено: Германия
Режиссер: Тобиас Менле, Иво Норенберг

О фильме: Совершите уникальное путешествие в самые отдаленные и неизведанные уголки России, поражающие богатством дикой природы, где можно побывать в огнедышащих кратерах вулканов и в ледовых пустынях, встретить белого медведя и амурского тигра.

Серия 6 - Камчатка: Земля огнедышащих вулканов и ледников, страна льда и пламени. Вулканический полуостров Камчатка расположен на дальнем востоке России. Из-за частых извержений вулканов и оползней рельеф местности постоянно меняется. Но, несмотря на то, что далекий Камчатский край считается опасным, он необыкновенно богат и плодороден. Исследуя богатства этой волшебной земли, фильм не пропускает ничего: в кадре - то парящие в небе беркуты, то целое семейство рыжей лисицы, а то и хозяева здешних мест - бурые медведи, с удовольствием принимающие ванны в естественных горячих источниках.

Перевод: Одноголосый закадровый, Н.Козий \ Одноголосый закадровый, Курдов (HDСlub)


Screenshots (click to enlarge to original size):

Wildes Russland / Wild Russia. Episode 6 - Kamchatka / Дикая природа России. Серия 6 - Камчатка 			  			 	   			 	  		  		  		  		  		  		  		  		   			 	   		 	    		 	    	 			   		  	   		      		   	  	 			   			  	  		 		   	 			   		 	    		  					 (2008) [ReUp]

Wildes Russland / Wild Russia. Episode 6 - Kamchatka / Дикая природа России. Серия 6 - Камчатка (2008) [ReUp]

Wildes Russland / Wild Russia. Episode 6 - Kamchatka / Дикая природа России. Серия 6 - Камчатка (2008) [ReUp]

Wildes Russland / Wild Russia. Episode 6 - Kamchatka / Дикая природа России. Серия 6 - Камчатка (2008) [ReUp]

Wildes Russland / Wild Russia. Episode 6 - Kamchatka / Дикая природа России. Серия 6 - Камчатка (2008) [ReUp]



–––––––––––––––––––––––––––––––––––––––-
OR
–––––––––––––––––––––––––––––––––––––––-

–––––––––––––––––––––––––––––––––––––––-