Tags
Language
Tags

The Comfort of Strangers (1990) [Criterion Collection]

Posted By: RSU75
1080p (FullHD) / BDRip IMDb
The Comfort of Strangers (1990) [Criterion Collection]

The Comfort of Strangers (1990) [Criterion Collection, Spine #1041]
BDRip 1080p | MKV | AVC 1800x1080, ~ 4.0 Mbps | 1hr 44mn | 3.20 GB | English: AC3, 1 ch, 448 kbps
BDRip 720p | MKV | AVC 1200x720, ~ 2.9 Mbps | 1hr 44mn | 2.27 GB | English: AC3, 1 ch, 256 kbps
Subtitles: English
Genre: Drama, Thriller



Director: Paul Schrader
Writer: Ian McEwan (novel), Harold Pinter (screenplay)
Stars: Christopher Walken, Rupert Everett, Natasha Richardson

Adapting the acclaimed novel by Ian McEwan, playwright and screenwriter Harold Pinter lends his trademark unnerving dialogue and air of creeping menace to this spellbinding study of power, control, and the frighteningly thin line between pleasure and pain. Rupert Everett and Natasha Richardson are the prey, a beautiful British couple working on their relationship while on holiday in Venice; Christopher Walken and Helen Mirren are the hunters who draw them into the sinister web of their opulent, old-world palazzo. What plays out is an unsettling, sadomasochistic seduction imbued with an atmosphere of sumptuous dread by the elegantly gliding tracking shots of cinematographer Dante Spinotti, lush score by Angelo Badalamenti, and carefully controlled direction of Paul Schrader, who choreographs a mesmerizing pas de quatre of sustained erotic and emotional tension.

Extras:
- None




General
Unique ID : 184905762652289629107698763983484489320 (0x8B1B8DF4E749AEBEA4941EE5205A0E68)
Complete name : F:\TheComfortOfStrangers.1990.Cr.1p\TheComfortOfStrangers.1990.Cr.1p.mkv
Format : Matroska
Format version : Version 4
File size : 3.20 GiB
Duration : 1 h 44 min
Overall bit rate : 4 371 kb/s
Movie name : Release RSU75
Encoded date : UTC 2020-09-13 16:04:39
Writing application : mkvmerge v6.6.0 ('The Edge Of The In Between') built on Dec 1 2013 17:55:00
Writing library : libebml v1.3.0 + libmatroska v1.4.1

Video
ID : 1
Format : AVC
Format/Info : Advanced Video Codec
Format profile : High@L4.1
Format settings : CABAC / 4 Ref Frames
Format settings, CABAC : Yes
Format settings, Reference fra : 4 frames
Codec ID : V_MPEG4/ISO/AVC
Duration : 1 h 44 min
Bit rate : 4 000 kb/s
Width : 1 800 pixels
Height : 1 080 pixels
Display aspect ratio : 5:3
Frame rate mode : Constant
Frame rate : 23.976 (23976/1000) FPS
Color space : YUV
Chroma subsampling : 4:2:0
Bit depth : 8 bits
Scan type : Progressive
Bits/(Pixel*Frame) : 0.086
Stream size : 2.81 GiB (88%)
Writing library : x264 core 148 r2643 5c65704
Encoding settings : cabac=1 / ref=4 / deblock=1:0:0 / analyse=0x3:0x113 / me=umh / subme=8 / psy=1 / psy_rd=1.00:0.00 / mixed_ref=1 / me_range=24 / chroma_me=1 / trellis=1 / 8x8dct=1 / cqm=0 / deadzone=21,11 / fast_pskip=1 / chroma_qp_offset=-2 / threads=3 / lookahead_threads=1 / sliced_threads=0 / nr=0 / decimate=1 / interlaced=0 / bluray_compat=0 / constrained_intra=0 / bframes=3 / b_pyramid=0 / b_adapt=2 / b_bias=0 / direct=3 / weightb=1 / open_gop=0 / weightp=2 / keyint=250 / keyint_min=25 / scenecut=40 / intra_refresh=0 / rc_lookahead=40 / rc=abr / mbtree=1 / bitrate=4000 / ratetol=1.0 / qcomp=0.60 / qpmin=10 / qpmax=51 / qpstep=4 / ip_ratio=1.41 / aq=1:1.00
Language : English
Default : Yes
Forced : No
Duration_Source : General_Duration

Audio
ID : 2
Format : AC-3
Format/Info : Audio Coding 3
Commercial name : Dolby Digital
Codec ID : A_AC3
Duration : 1 h 44 min
Bit rate mode : Constant
Bit rate : 448 kb/s
Channel(s) : 1 channel
Channel layout : C
Sampling rate : 48.0 kHz
Frame rate : 31.250 FPS (1536 SPF)
Compression mode : Lossy
Stream size : 336 MiB (10%)
Title : Mono
Language : English
Service kind : Complete Main
Default : Yes
Forced : No
Duration_Source : General_Duration

Text
ID : 3
Format : PGS
Muxing mode : zlib
Codec ID : S_HDMV/PGS
Codec ID/Info : Picture based subtitle format used on BDs/HD-DVDs
Language : English
Default : Yes
Forced : No

Menu
00:00:00.000 : en:Chapter 01
00:12:21.490 : en:Chapter 02
00:18:44.623 : en:Chapter 03
00:23:49.886 : en:Chapter 04
00:37:30.498 : en:Chapter 05
00:45:25.305 : en:Chapter 06
00:56:53.618 : en:Chapter 07
01:01:05.703 : en:Chapter 08
01:05:13.659 : en:Chapter 09
01:12:15.831 : en:Chapter 10
01:19:54.456 : en:Chapter 11
01:31:15.720 : en:Chapter 12
01:37:42.648 : en:Chapter 13





General
Unique ID : 237774833203848487231984421788803485584 (0xB2E1C4628F3560259589FAA4CC654F90)
Complete name : F:\TheComfortOfStrangers.1990.Cr.7p\TheComfortOfStrangers.1990.Cr.7p.mkv
Format : Matroska
Format version : Version 4
File size : 2.27 GiB
Duration : 1 h 44 min
Overall bit rate : 3 107 kb/s
Movie name : Release RSU75
Encoded date : UTC 2020-09-13 15:57:47
Writing application : mkvmerge v6.6.0 ('The Edge Of The In Between') built on Dec 1 2013 17:55:00
Writing library : libebml v1.3.0 + libmatroska v1.4.1

Video
ID : 1
Format : AVC
Format/Info : Advanced Video Codec
Format profile : High@L4.1
Format settings : CABAC / 4 Ref Frames
Format settings, CABAC : Yes
Format settings, Reference fra : 4 frames
Codec ID : V_MPEG4/ISO/AVC
Duration : 1 h 44 min
Bit rate : 2 900 kb/s
Width : 1 200 pixels
Height : 720 pixels
Display aspect ratio : 5:3
Frame rate mode : Constant
Frame rate : 23.976 (23976/1000) FPS
Color space : YUV
Chroma subsampling : 4:2:0
Bit depth : 8 bits
Scan type : Progressive
Bits/(Pixel*Frame) : 0.140
Stream size : 2.04 GiB (90%)
Writing library : x264 core 148 r2643 5c65704
Encoding settings : cabac=1 / ref=4 / deblock=1:0:0 / analyse=0x3:0x113 / me=umh / subme=8 / psy=1 / psy_rd=1.00:0.00 / mixed_ref=1 / me_range=24 / chroma_me=1 / trellis=1 / 8x8dct=1 / cqm=0 / deadzone=21,11 / fast_pskip=1 / chroma_qp_offset=-2 / threads=3 / lookahead_threads=1 / sliced_threads=0 / nr=0 / decimate=1 / interlaced=0 / bluray_compat=0 / constrained_intra=0 / bframes=3 / b_pyramid=0 / b_adapt=2 / b_bias=0 / direct=3 / weightb=1 / open_gop=0 / weightp=2 / keyint=250 / keyint_min=25 / scenecut=40 / intra_refresh=0 / rc_lookahead=40 / rc=abr / mbtree=1 / bitrate=2900 / ratetol=1.0 / qcomp=0.60 / qpmin=10 / qpmax=51 / qpstep=4 / ip_ratio=1.41 / aq=1:1.00
Language : English
Default : Yes
Forced : No
Duration_Source : General_Duration

Audio
ID : 2
Format : AC-3
Format/Info : Audio Coding 3
Commercial name : Dolby Digital
Codec ID : A_AC3
Duration : 1 h 44 min
Bit rate mode : Constant
Bit rate : 256 kb/s
Channel(s) : 1 channel
Channel layout : C
Sampling rate : 48.0 kHz
Frame rate : 31.250 FPS (1536 SPF)
Compression mode : Lossy
Stream size : 192 MiB (8%)
Title : Mono
Language : English
Service kind : Complete Main
Default : Yes
Forced : No
Duration_Source : General_Duration

Text
ID : 3
Format : PGS
Muxing mode : zlib
Codec ID : S_HDMV/PGS
Codec ID/Info : Picture based subtitle format used on BDs/HD-DVDs
Language : English
Default : Yes
Forced : No

Menu
00:00:00.000 : en:Chapter 01
00:12:21.490 : en:Chapter 02
00:18:44.623 : en:Chapter 03
00:23:49.886 : en:Chapter 04
00:37:30.498 : en:Chapter 05
00:45:25.305 : en:Chapter 06
00:56:53.618 : en:Chapter 07
01:01:05.703 : en:Chapter 08
01:05:13.659 : en:Chapter 09
01:12:15.831 : en:Chapter 10
01:19:54.456 : en:Chapter 11
01:31:15.720 : en:Chapter 12
01:37:42.648 : en:Chapter 13




Screenshots 1080p (click to enlarge to original size):

The Comfort of Strangers (1990) [Criterion Collection]

The Comfort of Strangers (1990) [Criterion Collection]

The Comfort of Strangers (1990) [Criterion Collection]



Screenshots 720p (click to enlarge to original size):

The Comfort of Strangers (1990) [Criterion Collection]





More in My Blog



If you like this release please visit my blog
In it you will find ALL the latest Criterion Collection releases