Tags
Language
Tags

Certain Women (2016) [Criterion Collection]

Posted By: RSU75
SD / DVDRip IMDb
Certain Women (2016) [Criterion Collection]

Certain Women (2016)[Criterion Collection, Spine #893]
DVDRip | MKV | AVC 720x480, ~ 1.7 Mbps | 1hr 47mn | 1.61 GB
English: Dolby AC3, 6 ch, 448 kbps
Subtitles: English
Genre: Drama

Criterion.com


Director: Kelly Reichardt
Writers: Kelly Reichardt (screenplay by), Maile Meloy (based on stories by)
Stars: Michelle Williams, Kristen Stewart, Laura Dern

Certain Women drops us into a handful of intersecting lives across Montana. A lawyer (Laura Dern) tries to defuse a hostage situation and calm her disgruntled client (Jared Harris), who feels slighted by a workers' compensation settlement. A married couple (Michelle Williams and James Le Gros) breaks ground on a new home but exposes marital fissures when they try to persuade an elderly man to sell his stockpile of sandstone. A ranch hand (Lily Gladstone) forms an attachment to a young lawyer (Kristen Stewart), who inadvertently finds herself teaching a twice-weekly adult education class, four hours from her home.




General
Unique ID : 225927313398800551740757275150299064320 (0xA9F8048F640FB2808825A4E4C23E6800)
Complete name : M:\CertainWomen.16.Cr.Dr\CertainWomen.16.Cr.Dr.mkv
Format : Matroska
Format version : Version 4 / Version 2
File size : 1.61 GiB
Duration : 1 h 47 min
Overall bit rate : 2 141 kb/s
Movie name : Release RSU75
Encoded date : UTC 2018-04-06 05:38:48
Writing application : mkvmerge v6.6.0 ('The Edge Of The In Between') built on Dec 1 2013 17:55:00
Writing library : libebml v1.3.0 + libmatroska v1.4.1

Video
ID : 1
Format : AVC
Format/Info : Advanced Video Codec
Format profile : High@L3
Format settings : CABAC / 4 Ref Frames
Format settings, CABAC : Yes
Format settings, RefFrames : 4 frames
Codec ID : V_MPEG4/ISO/AVC
Duration : 1 h 47 min
Bit rate : 1 700 kb/s
Width : 720 pixels
Height : 480 pixels
Display aspect ratio : 16:9
Original display aspect rat : 16:9
Frame rate mode : Constant
Frame rate : 23.976 (23976/1000) FPS
Color space : YUV
Chroma subsampling : 4:2:0
Bit depth : 8 bits
Scan type : Progressive
Bits/(Pixel*Frame) : 0.205
Stream size : 1.24 GiB (77%)
Writing library : x264 core 144 r2533 c8a773e
Encoding settings : cabac=1 / ref=4 / deblock=1:0:0 / analyse=0x3:0x113 / me=umh / subme=8 / psy=1 / psy_rd=1.00:0.00 / mixed_ref=1 / me_range=24 / chroma_me=1 / trellis=1 / 8x8dct=1 / cqm=0 / deadzone=21,11 / fast_pskip=1 / chroma_qp_offset=-2 / threads=3 / lookahead_threads=1 / sliced_threads=0 / nr=0 / decimate=1 / interlaced=0 / bluray_compat=0 / constrained_intra=0 / bframes=3 / b_pyramid=0 / b_adapt=2 / b_bias=0 / direct=3 / weightb=1 / open_gop=0 / weightp=2 / keyint=250 / keyint_min=25 / scenecut=40 / intra_refresh=0 / rc_lookahead=40 / rc=abr / mbtree=1 / bitrate=1700 / ratetol=1.0 / qcomp=0.60 / qpmin=10 / qpmax=51 / qpstep=4 / ip_ratio=1.41 / aq=1:1.00
Language : English
Default : Yes
Forced : No

Audio
ID : 2
Format : AC-3
Format/Info : Audio Coding 3
Format settings, Endianness : Big
Codec ID : A_AC3
Duration : 1 h 47 min
Bit rate mode : Constant
Bit rate : 448 kb/s
Channel(s) : 6 channels
Channel positions : Front: L C R, Side: L R, LFE
Sampling rate : 48.0 kHz
Frame rate : 31.250 FPS (1536 SPF)
Bit depth : 16 bits
Compression mode : Lossy
Delay relative to video : -42 ms
Stream size : 344 MiB (21%)
Language : English
Service kind : Complete Main
Default : Yes
Forced : No

Text
ID : 3
Format : VobSub
Muxing mode : zlib
Codec ID : S_VOBSUB
Codec ID/Info : Picture based subtitle format used on DVDs
Language : English
Default : Yes
Forced : No

Menu
00:00:00.000 : en:Chapter 01
00:02:54.841 : en:Chapter 02
00:04:58.164 : en:Chapter 03
00:08:26.339 : en:Chapter 04
00:15:46.645 : en:Chapter 05
00:31:49.073 : en:Chapter 06
00:40:39.470 : en:Chapter 07
00:54:59.829 : en:Chapter 08
01:05:34.430 : en:Chapter 09
01:20:12.507 : en:Chapter 10
01:35:09.036 : en:Chapter 11
01:39:47.147 : en:Chapter 12
01:41:50.304 : en:Chapter 13
01:43:22.529 : en:Chapter 14




Screenshots (click to enlarge to original size):

Certain Women (2016) [Criterion Collection]

Certain Women (2016) [Criterion Collection]

Certain Women (2016) [Criterion Collection]


Certain Women (2016) [Criterion Collection]




–––––––––––––––––––––––––––––––––––––––-