Tags
Language
Tags

Breaking Their Silence: Inside the Gymnastics Scandal (2018)

Posted By: notbanned
720p (HD) / WEBRip
Breaking Their Silence: Inside the Gymnastics Scandal (2018)

Breaking Their Silence: Inside the Gymnastics Scandal (2018)
WEBRip | 1280x720 | .MKV/AVC @ 2498 Kbps | 39 min 57 s | 751 MiB
Audio: English AAC 128 kbps, 2 channels | Subs: None
Genre: Documentary

"Breaking Their Silence: Inside the Gymnastics Scandal" examines this unimaginable story that rocked the gymnastics world and speaks to victims and experts about what parents and children need to know as they navigate situations outside of the home. Featuring exclusive interviews with Larry Nassar’s victims and experts close to the crisis, the special dives deep into the stories of multiple survivors and examine how organizations meant to keep girls and young women safe ultimately silenced their voices. "Breaking Their Silence: Inside the Gymnastics Scandal" features interviews with gymnasts Racheal Denhollander, Lindsey Lemke, Mattie Larson, Akemi Look and Jamie Dantzscher as they recount their experiences as well as exclusive footage of 19 of Nassar’s victims sitting down for a compelling interview with Elizabeth Vargas. Having been failed by the systems and the very people sworn to protect them, these young women have taken back their voices and come together to form a powerful army showcasing to the world how they’ve turned terrible tragedy into powerful triumph.

General
Unique ID : 177944618831823776076824948579270419057 (0x85DEE311743F03D5B7B3E79167106271)
Complete name : breaking.their.silence.inside.the.gymnastics.scandal.2018.720p.mkv
Format : Matroska
Format version : Version 4 / Version 2
File size : 751 MiB
Duration : 39 min 57 s
Overall bit rate : 2 628 kb/s

Video
ID : 1
Format : AVC
Format/Info : Advanced Video Codec
Format profile : Main@L3.1
Format settings, CABAC : Yes
Format settings, ReFrames : 4 frames
Codec ID : V_MPEG4/ISO/AVC
Duration : 39 min 57 s
Bit rate : 2 498 kb/s
Width : 1 280 pixels
Height : 720 pixels
Display aspect ratio : 16:9
Frame rate mode : Constant
Frame rate : 29.970 (30000/1001) FPS
Color space : YUV
Chroma subsampling : 4:2:0
Bit depth : 8 bits
Scan type : Progressive
Bits/(Pixel*Frame) : 0.090
Stream size : 714 MiB (95%)
Writing library : Zencoder Video Encoding System
Default : Yes
Forced : No

Audio
ID : 2
Format : AAC
Format/Info : Advanced Audio Codec
Format profile : LC
Codec ID : A_AAC
Duration : 39 min 57 s
Bit rate : 128 kb/s
Channel(s) : 2 channels
Channel positions : Front: L R
Sampling rate : 48.0 kHz
Frame rate : 46.875 FPS (1024 spf)
Compression mode : Lossy
Stream size : 36.5 MiB (5%)
Default : Yes
Forced : No


Screenshots:

Breaking Their Silence: Inside the Gymnastics Scandal (2018)

Breaking Their Silence: Inside the Gymnastics Scandal (2018)

Breaking Their Silence: Inside the Gymnastics Scandal (2018)

Breaking Their Silence: Inside the Gymnastics Scandal (2018)