Tags
Language
Tags

Vital Bonds (2016)

Posted By: notbanned
1080p (FullHD) / HDTV
Vital Bonds (2016)

Vital Bonds (2016)
HDTV | 1920x1080 | .MKV/AVC @ 3796 Kbps | 49 min 54 s | 1.39 GiB
Audio: English MP2 192 kbps, 2 channels | Subs: English
Genre: Documentary

VITAL BONDS is an evocative cinematic journey alongside the living and the dying, bringing to the screen a human drama never-before captured on film. With remarkable access to Canada’s busiest organ-transplant hospital, we witness one of the most profound experiences in any human life: the loss of a child, and the agonizing decision this tragedy demands. Created by two acclaimed Canadian documentarians, director Niobe Thompson and producer Rovita Dransfeld, VITAL BONDS grips the viewer in a relentless, emotional embrace—propelling us from moments of unexpected joy to unbearable heartbreak—until the very final frame. An arresting tour de force of vérité filmmaking, immersing us completely in a world few of us understand but which we’ll all one day encounter.

General
Unique ID : 151108744715183782947717927345621035971 (0x71AE7C524908CE156176978C4CF3EBC3)
Complete name : Vital.Bonds.2016.1080p.mkv
Format : Matroska
Format version : Version 4 / Version 2
File size : 1.39 GiB
Duration : 49 min 54 s
Overall bit rate : 3 993 kb/s

Video
ID : 1
Format : AVC
Format/Info : Advanced Video Codec
Format profile : High@L4
Format settings, CABAC : Yes
Format settings, ReFrames : 4 frames
Codec ID : V_MPEG4/ISO/AVC
Duration : 49 min 54 s
Bit rate : 3 796 kb/s
Width : 1 920 pixels
Height : 1 080 pixels
Display aspect ratio : 16:9
Frame rate mode : Variable
Frame rate : 25.000 FPS
Standard : Component
Color space : YUV
Chroma subsampling : 4:2:0
Bit depth : 8 bits
Scan type : MBAFF
Scan type, store method : Separated fields
Scan order : Top Field First
Bits/(Pixel*Frame) : 0.073
Stream size : 1.32 GiB (95%)
Default : Yes
Forced : No
Color range : Limited
Color primaries : BT.709
Transfer characteristics : BT.709
Matrix coefficients : BT.709

Audio
ID : 2
Format : MPEG Audio
Format version : Version 1
Format profile : Layer 2
Codec ID : A_MPEG/L2
Codec ID/Hint : MP2
Duration : 49 min 54 s
Bit rate mode : Constant
Bit rate : 192 kb/s
Channel(s) : 2 channels
Sampling rate : 48.0 kHz
Frame rate : 41.667 FPS (1152 spf)
Compression mode : Lossy
Stream size : 68.5 MiB (5%)
Language : English
Default : Yes
Forced : No

Text
ID : 3
Format : UTF-8
Codec ID : S_TEXT/UTF8
Codec ID/Info : UTF-8 Plain Text
Duration : 49 min 24 s
Bit rate : 82 b/s
Count of elements : 773
Stream size : 29.9 KiB (0%)
Language : English
Default : No
Forced : No


Screenshots:

Vital Bonds (2016)

Vital Bonds (2016)

Vital Bonds (2016)

Vital Bonds (2016)