Tags
Language
Tags
March 2024
Su Mo Tu We Th Fr Sa
25 26 27 28 29 1 2
3 4 5 6 7 8 9
10 11 12 13 14 15 16
17 18 19 20 21 22 23
24 25 26 27 28 29 30
31 1 2 3 4 5 6

BBC - The Secret World of Japanese Bicycle Racing with Sir Chris Hoy (2020)

Posted By: notbanned
1080p (FullHD) / HDTV
BBC - The Secret World of Japanese Bicycle Racing with Sir Chris Hoy (2020)

BBC - The Secret World of Japanese Bicycle Racing with Sir Chris Hoy (2020)
HDTV | 1920x1080 | .MKV/AVC @ 4822 Kbps | 29 min 3 s | 1.04 GiB
Audio: English AC3 192 kbps, 2 channels | Subs: English
Genre: Documentary

Olympic icon Sir Chris Hoy heads to Japan, host of the 2021 Tokyo Games, to explore the phenomenon of the keirin, the most extreme and exciting event in track cycling. A test of controlled pacing and then a tactical fight to the line, keirin is a sport in its own right in its country of origin and is steeped in the history and rituals that make Japanese culture so unique.

Attending keirin school is a once-in-a-lifetime opportunity for international riders, and back in 2005, multiple Olympic gold medallist Sir Chris was one of the first Britons to be invited to savour the ultimate experience in the career of any track cyclist. He now makes a nostalgic return.

General
Complete name : The.Sct.World.of.Japanese.Bicycle.Racing.with.Sir.Chris.Hoy.2020.1080p.mkv
Format : Matroska
Format version : Version 4 / Version 2
File size : 1.04 GiB
Duration : 29 min 3 s
Overall bit rate : 5 116 kb/s

Video
ID : 1
Format : AVC
Format/Info : Advanced Video Codec
Format profile : High@L4
Format settings, CABAC : Yes
Format settings, ReFrames : 4 frames
Codec ID : V_MPEG4/ISO/AVC
Duration : 29 min 3 s
Bit rate : 4 822 kb/s
Width : 1 920 pixels
Height : 1 080 pixels
Display aspect ratio : 16:9
Frame rate mode : Constant
Frame rate : 25.000 FPS
Standard : Component
Color space : YUV
Chroma subsampling : 4:2:0
Bit depth : 8 bits
Scan type : MBAFF
Scan type, store method : Interleaved fields
Scan order : Top Field First
Bits/(Pixel*Frame) : 0.093
Stream size : 1 002 MiB (94%)
Language : English
Default : Yes
Forced : No
Color range : Limited
Color primaries : BT.709
Transfer characteristics : BT.709
Matrix coefficients : BT.709

Audio
ID : 2
Format : AC-3
Format/Info : Audio Coding 3
Format settings, Endianness : Big
Codec ID : A_AC3
Duration : 29 min 3 s
Bit rate mode : Constant
Bit rate : 192 kb/s
Channel(s) : 2 channels
Channel positions : Front: L R
Sampling rate : 48.0 kHz
Frame rate : 31.250 FPS (1536 spf)
Bit depth : 16 bits
Compression mode : Lossy
Stream size : 39.9 MiB (4%)
Language : English
Service kind : Complete Main
Default : Yes
Forced : No

Text
ID : 3
Format : UTF-8
Codec ID : S_TEXT/UTF8
Codec ID/Info : UTF-8 Plain Text
Language : English
Default : No
Forced : No


Screenshots:

BBC - The Secret World of Japanese Bicycle Racing with Sir Chris Hoy (2020)

BBC - The Secret World of Japanese Bicycle Racing with Sir Chris Hoy (2020)

BBC - The Secret World of Japanese Bicycle Racing with Sir Chris Hoy (2020)

BBC - The Secret World of Japanese Bicycle Racing with Sir Chris Hoy (2020)