Tags
Language
Tags

Channel 4 - The Great Wall of China: The Hidden Story (2014)

Posted By: Tutorial
720p (HD) / HDTV
Channel 4 - The Great Wall of China: The Hidden Story (2014)

Channel 4 - The Great Wall of China: The Hidden Story (2014)
HDTV | 1280 x 720 | .MP4/AVC @ 3014 Kbps | 47 min 22 s | 1.05 GB
Audio: English AAC 160 Kbps, 2 channels | Subs: None
Genre: Documentary, History

With access to the first nationwide survey and state-of-the-art drones mapping the Great Wall of China, this documentary offers new evidence that reveals its extraordinary magnitude, rewrites its millennia-long history and decodes its complex signals system. Using cutting-edge chemistry, the programme also finds out what has kept the wall standing for so long - a simple cooking ingredient found in kitchens across the world.

Related Documentaries:
Channel 4 - The Great Wall of China (2008)
NHK - China: The Great Dragon ...ttle to Clear the Skies (2017)
BBC - China's Terracotta Army (2007)
BBC - Art of China (2014)
The Search for China's Blue Hole (2015)
Channel 4 - The Last Emperor of China (2008)
Channel 4 - Our Guy in China: Series 1 (2016)
Channel 4 - China's Forgotten Emperor (2016)
ITV - China, America and Belgium (2016)
BBC - James Joyce Goes to China (2016)
BBC - China's Terracotta Army (2007)
The First Emperor - The Man who Made China (2007)

General
Complete name : Ch4.Secret.History.The.Great.Wall.Of.China.The.Hidden.Story.mp4
Format : MPEG-4
Format profile : Base Media
Codec ID : isom (isom/iso2/avc1/mp41)
File size : 1.05 GiB
Duration : 47 min 22 s
Overall bit rate mode : Variable
Overall bit rate : 3 179 kb/s
Encoded date : UTC 2014-12-03 16:34:24
Tagged date : UTC 2014-12-03 16:34:24
Writing application : Lavf51.12.1

Video
ID : 1
Format : AVC
Format/Info : Advanced Video Codec
Format profile : High@L4.1
Format settings, CABAC : No
Format settings, ReFrames : 1 frame
Format settings, GOP : M=1, N=12
Codec ID : avc1
Codec ID/Info : Advanced Video Coding
Duration : 47 min 22 s
Bit rate : 3 014 kb/s
Width : 1 280 pixels
Height : 720 pixels
Display aspect ratio : 16:9
Frame rate mode : Constant
Frame rate : 25.000 FPS
Color space : YUV
Chroma subsampling : 4:2:0
Bit depth : 8 bits
Scan type : Progressive
Bits/(Pixel*Frame) : 0.131
Stream size : 1 021 MiB (95%)
Encoded date : UTC 2014-12-03 16:34:24
Tagged date : UTC 2014-12-03 16:34:24

Audio
ID : 2
Format : AAC
Format/Info : Advanced Audio Codec
Format profile : LC
Codec ID : 40
Duration : 47 min 22 s
Bit rate mode : Variable
Bit rate : 160 kb/s
Channel(s) : 2 channels
Channel positions : Front: L R
Sampling rate : 48.0 kHz
Frame rate : 46.875 FPS (1024 spf)
Compression mode : Lossy
Stream size : 54.1 MiB (5%)
Language : English
Encoded date : UTC 2014-12-03 16:34:24
Tagged date : UTC 2014-12-03 16:34:24
Screenshots

Channel 4 - The Great Wall of China: The Hidden Story (2014)

Channel 4 - The Great Wall of China: The Hidden Story (2014)

Channel 4 - The Great Wall of China: The Hidden Story (2014)

Channel 4 - The Great Wall of China: The Hidden Story (2014)

Welcome to my blog - daily update!

Channel 4 - The Great Wall of China: The Hidden Story (2014)