Tags
Language
Tags

The Good The Bad and the Ugly (1966) Extended Cut

Posted By: Tavaz
1080p (FullHD) / BDRip
The Good The Bad and the Ugly (1966) Extended Cut

The Good The Bad and the Ugly (1966) Extended Cut
BDRip | MKV | 1920x816 | English | H265 @ 2312 kbps | AC-3 @ 448 kbps | 2 h 58 min | 3.45 GiB
Subtitles: English
Genre: Western

A bounty hunting scam joins two men in an uneasy alliance against a third in a race to find a fortune in gold buried in a remote cemetery.

ebd9ccc93fd140da8ba137c36e183ca7.mkv (3.5 GB)



General
Unique ID : 221316917309238505913825196814680720419 (0xA680167BAB2BAE469D7149DC9C180423)
Complete name : ./ebd9ccc93fd140da8ba137c36e183ca7.mkv
Format : Matroska
Format version : Version 2
File size : 3.45 GiB
Duration : 2 h 58 min
Overall bit rate : 2 765 kb/s
Movie name : The Good, The Bad, and the Ugly 1966 ExtCut BluRay 10Bit 1080p DD5.1 H265-d3g
Encoded date : UTC 2018-01-19 05:55:56
Writing application : DVDFab 10.0.7.7
Writing library : libebml v1.3.4 + libmatroska v1.4.5

Video
ID : 1
Format : HEVC
Format/Info : High Efficiency Video Coding
Format profile : Main 10@L4@Main
Codec ID : V_MPEGH/ISO/HEVC
Duration : 2 h 58 min
Bit rate : 2 312 kb/s
Width : 1 920 pixels
Height : 816 pixels
Display aspect ratio : 2.35:1
Frame rate mode : Constant
Frame rate : 23.976 (24000/1001) FPS
Color space : YUV
Chroma subsampling : 4:2:0
Bit depth : 10 bits
Bits/(Pixel*Frame) : 0.062
Stream size : 2.89 GiB (84%)
Default : Yes
Forced : No
Color range : Limited
Color primaries : BT.709
Transfer characteristics : BT.709
Matrix coefficients : BT.709

Audio
ID : 2
Format : AC-3
Format/Info : Audio Coding 3
Format settings, Endianness : Big
Codec ID : A_AC3
Duration : 2 h 58 min
Bit rate mode : Constant
Bit rate : 448 kb/s
Channel(s) : 6 channels
Channel positions : Front: L C R, Side: L R, LFE
Sampling rate : 48.0 kHz
Frame rate : 31.250 FPS (1536 SPF)
Bit depth : 16 bits
Compression mode : Lossy
Stream size : 573 MiB (16%)
Language : English
Service kind : Complete Main
Default : Yes
Forced : No

Text
ID : 3
Format : VobSub
Codec ID : S_VOBSUB
Codec ID/Info : Picture based subtitle format used on DVDs
Duration : 2 h 46 min
Bit rate : 3 500 b/s
Count of elements : 1140
Stream size : 4.16 MiB (0%)
Language : English
Default : No
Forced : No

Menu
00:00:00.000 : en:(01)00:00:00:000
00:27:47.916 : en:(02)00:27:47:916
00:49:53.657 : en:(03)00:49:53:657
01:15:25.020 : en:(04)01:15:25:020
01:38:14.889 : en:(05)01:38:14:889
01:57:11.774 : en:(06)01:57:11:774
02:11:09.736 : en:(07)02:11:09:736
02:31:24.575 : en:(08)02:31:24:575





The Good The Bad and the Ugly (1966) Extended Cut


The Good The Bad and the Ugly (1966) Extended Cut


The Good The Bad and the Ugly (1966) Extended Cut


The Good The Bad and the Ugly (1966) Extended Cut


The Good The Bad and the Ugly (1966) Extended Cut