Tags
Language
Tags
October 2022
Su Mo Tu We Th Fr Sa
25 26 27 28 29 30 1
2 3 4 5 6 7 8
9 10 11 12 13 14 15
16 17 18 19 20 21 22
23 24 25 26 27 28 29
30 31 1 2 3 4 5

The First Monday in May (2016)

Posted By: Tavaz
720p (HD) / WEBRip IMDb
The First Monday in May (2016)

The First Monday in May (2016)
WEBRip | MKV | 1280x720 | English | H264 @ 3400 kbps | AC-3 @ 384 kbps | 1 h 30 min | 2.39 GiB
Subtitles: Español, English
Genre: Documentary

Follows the creation of The Metropolitan Museum of Art's most attended fashion exhibition in history, "China: Through The Looking Glass," an exploration of Chinese-inspired Western fashions by Costume Institute curator Andrew Bolton.,A behind the scenes look at the preparations for the 2015 art exhibit, China: Through the Looking Glass held at New York's Metropolitan Museum of Art, commonly referred to as the Met Gala, which has become one of the hottest tickets in town.

The.First.Monday.in.May.2016.720p.WEB.h264-OPUS.mkv (2.4 GB)



General
Unique ID : 3506835004536083389678224413636531420 (0x2A3645094068E9A5FF66426C5A194DC)
Complete name : ./The.First.Monday.in.May.2016.720p.WEB.h264-OPUS.mkv
Format : Matroska
Format version : Version 4 / Version 2
File size : 2.39 GiB
Duration : 1 h 30 min
Overall bit rate mode : Variable
Overall bit rate : 3 773 kb/s
Writing application : mkvmerge v64.0.0 ('Willows') 64-bit
Writing library : libebml v1.4.2 + libmatroska v1.6.4

Video
ID : 1
Format : AVC
Format/Info : Advanced Video Codec
Format profile : Main@L3.1
Format settings : CABAC / 4 Ref Frames
Format settings, CABAC : Yes
Format settings, RefFrames : 4 frames
Codec ID : V_MPEG4/ISO/AVC
Duration : 1 h 30 min
Bit rate mode : Variable
Bit rate : 3 400 kb/s
Maximum bit rate : 5 100 kb/s
Width : 1 280 pixels
Height : 720 pixels
Display aspect ratio : 16:9
Frame rate mode : Constant
Frame rate : 23.976 (24000/1001) FPS
Color space : YUV
Chroma subsampling : 4:2:0
Bit depth : 8 bits
Scan type : Progressive
Bits/(Pixel*Frame) : 0.154
Stream size : 2.10 GiB (88%)
Writing library : x264 core 157 r2965 861cec4
Encoding settings : cabac=1 / ref=4 / deblock=1:0:0 / analyse=0x1:0x111 / me=hex / subme=7 / psy=1 / psy_rd=1.00:0.00 / mixed_ref=1 / me_range=16 / chroma_me=1 / trellis=1 / 8x8dct=0 / cqm=0 / deadzone=21,11 / fast_pskip=1 / chroma_qp_offset=-2 / threads=22 / lookahead_threads=3 / sliced_threads=0 / nr=0 / decimate=1 / interlaced=0 / bluray_compat=0 / constrained_intra=0 / bframes=3 / b_pyramid=2 / b_adapt=1 / b_bias=0 / direct=1 / weightb=1 / open_gop=0 / weightp=2 / keyint=96 / keyint_min=96 / scenecut=40 / intra_refresh=0 / rc_lookahead=40 / rc=2pass / mbtree=1 / bitrate=3400 / ratetol=1.0 / qcomp=0.60 / qpmin=0 / qpmax=69 / qpstep=4 / cplxblur=20.0 / qblur=0.5 / vbv_maxrate=5100 / vbv_bufsize=2550 / nal_hrd=vbr / filler=0 / ip_ratio=1.40 / aq=1:1.00
Default : Yes
Forced : No
Color range : Limited
Color primaries : BT.709
Transfer characteristics : BT.709
Matrix coefficients : BT.709
Statistics Tags Issue : mkvmerge v64.0.0 ('Willows') 64-bit 2022-03-01 10:02:50 / mkvmerge v64.0.0 ('Willows') 64-bit
FromStats_BitRate : 3386455
FromStats_Duration : 01:30:33.762000000
FromStats_FrameCount : 130280
FromStats_StreamSize : 2300148822

Audio
ID : 2
Format : AC-3
Format/Info : Audio Coding 3
Format settings, Endianness : Big
Codec ID : A_AC3
Duration : 1 h 30 min
Bit rate mode : Constant
Bit rate : 384 kb/s
Channel(s) : 6 channels
Channel positions : Front: L C R, Side: L R, LFE
Sampling rate : 48.0 kHz
Frame rate : 31.250 FPS (1536 SPF)
Bit depth : 16 bits
Compression mode : Lossy
Stream size : 249 MiB (10%)
Title : English
Language : English
Service kind : Complete Main
Default : Yes
Forced : No
Statistics Tags Issue : mkvmerge v64.0.0 ('Willows') 64-bit 2022-03-01 10:02:50 / mkvmerge v64.0.0 ('Willows') 64-bit
FromStats_BitRate : 384000
FromStats_Duration : 01:30:33.760000000
FromStats_FrameCount : 169805
FromStats_StreamSize : 260820480

Text #1
ID : 3
Format : UTF-8
Codec ID : S_TEXT/UTF8
Codec ID/Info : UTF-8 Plain Text
Title : English (SDH)
Language : English
Default : No
Forced : No
Statistics Tags Issue : mkvmerge v64.0.0 ('Willows') 64-bit 2022-03-01 10:02:50 / mkvmerge v64.0.0 ('Willows') 64-bit
FromStats_BitRate : 76
FromStats_Duration : 01:30:08.667000000
FromStats_FrameCount : 1389
FromStats_StreamSize : 51974

Text #2
ID : 4
Format : UTF-8
Codec ID : S_TEXT/UTF8
Codec ID/Info : UTF-8 Plain Text
Title : Spanish (Latin America)
Language : Spanish
Default : No
Forced : No
Statistics Tags Issue : mkvmerge v64.0.0 ('Willows') 64-bit 2022-03-01 10:02:50 / mkvmerge v64.0.0 ('Willows') 64-bit
FromStats_BitRate : 79
FromStats_Duration : 01:30:16.167000000
FromStats_FrameCount : 1517
FromStats_StreamSize : 54095





The First Monday in May (2016)


The First Monday in May (2016)


The First Monday in May (2016)


The First Monday in May (2016)


The First Monday in May (2016)