Tags
Language
Tags

Pirati dei Caraibi 5: La vendetta di Salazar (2017)

Posted By: JohnSmith
Pirati dei Caraibi 5: La vendetta di Salazar (2017)

Pirati dei Caraibi: La vendetta di Salazar / Pirates of the Caribbean: Dead Men Tell No Tales (2017)
HDRip LD | AVI / XviD@1700 kb/s | 720x304 | 2h 9mn | 1.66 GB | Italian (dubbed): MP3, 128 kb/s (2 ch)
Genre: Action | Adventure | Fantasy

Sempre pronto all'avventura, lo spavaldo capitano Jack Sparrow (Johnny Depp) è costretto ancora una volta a fare i conti con la sfortuna quando i diabolici pirati fantasma guidati dal vecchio e terrificante nemico Salazar (Javier Bardem), fuggiti dal Triangolo del Diavolo, decidono di uccidere ogni pirata che incontrano. L'unica speranza di Sparrow sarà trovare il leggendario tridente di Poseidone, un potente artefatto che dona al suo possessore il controllo totale sui mari.




General
Complete name : D:\Pirati.Dei.Caraibi.La.Vendetta.Di.Salazar.2017.iTALiAN.LD.WEBDL.XviD-CriMiNaL.avi
Format : AVI
Format/Info : Audio Video Interleave
File size : 1.66 GiB
Duration : 2 h 9 min
Overall bit rate : 1 841 kb/s
Writing library : VirtualDub build 35491/release

Video
ID : 0
Format : MPEG-4 Visual
Format profile : Advanced Simple@L5
Format settings, BVOP : 2
Format settings, QPel : No
Format settings, GMC : No warppoints
Format settings, Matrix : Default (MPEG)
Muxing mode : Packed bitstream
Codec ID : XVID
Codec ID/Hint : XviD
Duration : 2 h 9 min
Bit rate : 1 703 kb/s
Width : 720 pixels
Height : 304 pixels
Display aspect ratio : 2.35:1
Frame rate : 23.976 (24000/1001) FPS
Color space : YUV
Chroma subsampling : 4:2:0
Bit depth : 8 bits
Scan type : Progressive
Compression mode : Lossy
Bits/(Pixel*Frame) : 0.325
Stream size : 1.54 GiB (93%)
Writing library : XviD 67

Audio
ID : 1
Format : MPEG Audio
Format version : Version 1
Format profile : Layer 3
Mode : Joint stereo
Mode extension : MS Stereo
Codec ID : 55
Codec ID/Hint : MP3
Duration : 2 h 9 min
Bit rate mode : Constant
Bit rate : 128 kb/s
Channel(s) : 2 channels
Sampling rate : 48.0 kHz
Compression mode : Lossy
Stream size : 118 MiB (7%)
Alignment : Split accross interleaves
Interleave, duration : 42 ms (1.00 video frame)
Interleave, preload duratio : 500 ms
Writing library : LAME3.99r
Encoding settings : -m j -V 4 -q 3 -lowpass 17 -b 128




Screenshots

Pirati dei Caraibi 5: La vendetta di Salazar (2017)

Pirati dei Caraibi 5: La vendetta di Salazar (2017)

Pirati dei Caraibi 5: La vendetta di Salazar (2017)