Nazi Victory: The Post War Plan (2018)

Posted By: notbanned
Nazi Victory: The Post War Plan (2018)

Nazi Victory: The Post War Plan (2018)
WEB-DL | 720x404 | .MP4/AVC @ 1715 Kbps | 6x~43min | 3.55 GiB
Audio: English AAC 128 kbps, 2 channels | Subs: None
Genre: Documentary

It's probably the greatest historical "what if?" of all time. A question that fascinates and horrifies in equal measures: what if Nazi Germany had won the Second World War? In this brand-new and exclusive six-part series, author and historian Guy Walters reveals how Hitler had already started to implement plans of world domination long before the war had started and explores how the Fuhrer intended to carry them out, regardless of the human cost.
Hitler's British Headquarters
What world could we now inhabit had the Nazis prevailed in WWII? Hear about Hitler's post-war plans for Britain, from concentration camps on UK soil to new national landmarks.

Megacities
From rebranding Berlin as the world's capital to the destruction of Warsaw, hear about Adolf Hitler's plans to redesign Germany's occupied territories after WWII.

America
Adolf Hitler's aspirations were truly global. Hear about the Nazis' plans to invade America - and the surprising support for National Socialism in the 'land of the free'.

Nazification
Discover how Adolf Hitler intended to shape model Nazi citizens through anti-Semitic clothing laws, the establishing of SS bride schools and breeding programmes.

Recreation For The Reich
Hear how Adolf Hitler used recreation and leisure time to control Germany's workforce and indoctrinate citizens of the Third Reich with the ideals of the Nazi regime.

Transporting The Reich
Hear about Adolf Hitler's grand plans to modernise the German transport system, including super trains, futuristic airports and planes for the public.

General
Complete name : Nazi.Victory.The.Post.War.Plan.Part1.WEB-DL.mp4
Format : MPEG-4
Format profile : Base Media / Version 2
Codec ID : mp42 (mp42/isom)
File size : 605 MiB
Duration : 43 min 54 s
Overall bit rate mode : Variable
Overall bit rate : 1 928 kb/s

Video
ID : 1
Format : AVC
Format/Info : Advanced Video Codec
Format profile : High@L3
Format settings, CABAC : Yes
Format settings, ReFrames : 3 frames
Format settings, GOP : M=1, N=75
Codec ID : avc1
Codec ID/Info : Advanced Video Coding
Duration : 43 min 54 s
Source duration : 43 min 54 s
Bit rate : 1 715 kb/s
Width : 720 pixels
Height : 404 pixels
Display aspect ratio : 16:9
Frame rate mode : Constant
Frame rate : 25.000 FPS
Color space : YUV
Chroma subsampling : 4:2:0
Bit depth : 8 bits
Scan type : Progressive
Bits/(Pixel*Frame) : 0.236
Stream size : 538 MiB (89%)
Source stream size : 564 MiB (93%)
Writing library : Zencoder Video Encoding System
Encoded date : UTC 2018-02-12 07:56:40
Tagged date : UTC 2018-02-12 07:56:58

Audio
ID : 2
Format : AAC
Format/Info : Advanced Audio Codec
Format profile : LC
Codec ID : 40
Duration : 43 min 54 s
Bit rate mode : Variable
Bit rate : 128 kb/s
Maximum bit rate : 150 kb/s
Channel(s) : 2 channels
Channel positions : Front: L R
Sampling rate : 48.0 kHz
Frame rate : 46.875 FPS (1024 spf)
Compression mode : Lossy
Stream size : 40.2 MiB (7%)
Language : English
Default : Yes
Alternate group : 1
Encoded date : UTC 2018-02-12 07:56:40
Tagged date : UTC 2018-02-12 07:56:58


Screenshots:

Nazi Victory: The Post War Plan (2018)

Nazi Victory: The Post War Plan (2018)

Nazi Victory: The Post War Plan (2018)

Nazi Victory: The Post War Plan (2018)

Nazi Victory: The Post War Plan (2018)