Please register here if you want to download anything!

If domain in your address bar is different from the list below
PLEASE LEAVE THAT SITE IMMEDIATELY
❗IT'S A DANGEROUS FAKE❗



Spicy Magazines for Men! ;-)

National Geographic - Pyramids of Death (2005)

Posted By: notbanned
720p (HD) / HDTV
National Geographic - Pyramids of Death (2005)

National Geographic - Pyramids of Death (2005)
HDTV | 1280x720 | .MKV/AVC @ 2941 Kbps | 47 min 0 s | 1.09 GiB
Audio: English AC3 384 kbps, 6 channels | Subs: None
Genre: Documentary

They are some of the biggest pyramids on the planet, millions of tons of stone and earth towering above the landscape in a display of massive wealth and power. But it wasn't the pharaohs that built these pyramids. This is the majestic ancient city of Teotihuacan, Mexico, home to one of the most powerful civilizations of its time.
But why, around 750 AD, did the advanced civilization that created Teotihuacan suddenly vanish? The identities of its founders, the language they spoke and even the original name of the city are all unknown. DNA analysis of bodies from Teotihuac'n shows they weren't Mayan, Incan or Aztec, but an entirely different civilization. It was assumed to have been a peaceful, utopian society, but the latest discoveries are revealing a much darker scenario. In the depths of Teotihuacan's pyramids, experts have uncovered vault after vault filled with curious human remains.

General
Unique ID : 225766419118509722390101417390525293751 (0xA9D907DC11C073558639E841FEE6A4B7)
Complete name : NG.Pyramids.Of.Death.720p.mkv
Format : Matroska
Format version : Version 1
File size : 1.09 GiB
Duration : 47 min 0 s
Overall bit rate : 3 328 kb/s

Video
ID : 1
Format : AVC
Format/Info : Advanced Video Codec
Format profile : High@L5.1
Format settings, CABAC : Yes
Format settings, ReFrames : 5 frames
Codec ID : V_MPEG4/ISO/AVC
Duration : 47 min 0 s
Bit rate : 2 941 kb/s
Width : 1 280 pixels
Height : 720 pixels
Display aspect ratio : 16:9
Frame rate mode : Constant
Frame rate : 25.000 FPS
Color space : YUV
Chroma subsampling : 4:2:0
Bit depth : 8 bits
Scan type : Progressive
Bits/(Pixel*Frame) : 0.128
Stream size : 968 MiB (86%)
Writing library : x264 core 60 r900 a9af942
Encoding settings : cabac=1 / ref=5 / deblock=1:0:0 / analyse=0x3:0x133 / me=umh / subme=6 / brdo=1 / mixed_ref=1 / me_range=8 / chroma_me=1 / trellis=1 / 8x8dct=1 / cqm=0 / deadzone=21,11 / chroma_qp_offset=0 / threads=6 / nr=0 / decimate=1 / mbaff=0 / bframes=3 / b_pyramid=1 / b_adapt=1 / b_bias=0 / direct=3 / wpredb=1 / bime=1 / keyint=250 / keyint_min=50 / scenecut=40(pre) / rc=2pass / bitrate=2941 / ratetol=1.0 / rceq='blurCplx^(1-qComp)' / qcomp=1.00 / qpmin=10 / qpmax=51 / qpstep=4 / cplxblur=20.0 / qblur=0.5 / ip_ratio=1.40 / pb_ratio=1.30 / aq=2:1.00
Default : Yes
Forced : No

Audio
ID : 2
Format : AC-3
Format/Info : Audio Coding 3
Format settings, Endianness : Big
Codec ID : A_AC3
Duration : 47 min 0 s
Bit rate mode : Constant
Bit rate : 384 kb/s
Channel(s) : 6 channels
Channel positions : Front: L C R, Side: L R, LFE
Sampling rate : 48.0 kHz
Frame rate : 31.250 FPS (1536 spf)
Bit depth : 16 bits
Compression mode : Lossy
Stream size : 129 MiB (12%)
Language : Danish
Service kind : Complete Main
Default : Yes
Forced : No


Screenshots:

National Geographic - Pyramids of Death (2005)

National Geographic - Pyramids of Death (2005)

National Geographic - Pyramids of Death (2005)

National Geographic - Pyramids of Death (2005)