Last Flag Flying (2017)

Posted By: JohnSmith
1080p (FullHD) / WEB-DL IMDb
Last Flag Flying (2017)

Last Flag Flying (2017)
HDRip | AVI / XviD@1130 kb/s | 720x400 | 2h 5mn | 1.33 GB | English: AC3, 384 kb/s (6 ch)
WEB-DL 720p | AVI / XviD@3790 kb/s | 1280x716 | 2h 5mn | 3.65 GB | English: AC3, 384 kb/s (6 ch)
WEB-DL 1080p | MKV / AVC@5160 kb/s | 1908x1068 | 2h 5mn | 4.94 GB | English: AC3, 384 kb/s (6 ch)
Genre: Comedy | Drama | War

In 2003, 30 years after they served together in the Vietnam War, former Navy Hospital Corpsman Richard "Doc" Shepherd re-unites with ex-Marines Sal and Mueller on a different type of mission: to bury Doc's son, a young Marine killed in the Iraq War. Doc decides to forgo burial at Arlington Cemetery and, with the help of his old buddies, takes the casket on a bittersweet trip up the East Coast to his home in suburban New Hampshire.

IMDB - 2 wins & 5 nominations.



General
Complete name : G:\Last.Flag.Flying.2017.HDRip.XviD.AC3-EVO\Last.Flag.Flying.2017.HDRip.XviD.AC3-EVO.avi
Format : AVI
Format/Info : Audio Video Interleave
File size : 1.33 GiB
Duration : 2 h 5 min
Overall bit rate : 1 524 kb/s
Writing library : VirtualDub build 32593/release

Video
ID : 0
Format : MPEG-4 Visual
Format profile : Advanced Simple@L5
Format settings, BVOP : 2
Format settings, QPel : No
Format settings, GMC : No warppoints
Format settings, Matrix : Default (H.263)
Muxing mode : Packed bitstream
Codec ID : XVID
Codec ID/Hint : XviD
Duration : 2 h 5 min
Bit rate : 1 131 kb/s
Width : 720 pixels
Height : 400 pixels
Display aspect ratio : 16:9
Frame rate : 23.976 (24000/1001) FPS
Color space : YUV
Chroma subsampling : 4:2:0
Bit depth : 8 bits
Scan type : Progressive
Compression mode : Lossy
Bits/(Pixel*Frame) : 0.164
Stream size : 1 012 MiB (74%)
Writing library : XviD 66

Audio
ID : 1
Format : AC-3
Format/Info : Audio Coding 3
Format settings, Endianness : Big
Codec ID : 2000
Duration : 2 h 5 min
Bit rate mode : Constant
Bit rate : 384 kb/s
Channel(s) : 6 channels
Channel positions : Front: L C R, Side: L R, LFE
Sampling rate : 48.0 kHz
Frame rate : 31.250 FPS (1536 spf)
Bit depth : 16 bits
Compression mode : Lossy
Stream size : 344 MiB (25%)
Alignment : Aligned on interleaves
Interleave, duration : 42 ms (1.00 video frame)
Interleave, preload duratio : 512 ms
Service kind : Complete Main





General
Complete name : D:\Downloads\Last.Flag.Flying.2017.720p.WEB-DL.XviD.AC3-FGT\Last.Flag.Flying.2017.720p.WEB-DL.XviD.AC3-FGT.avi
Format : AVI
Format/Info : Audio Video Interleave
Format profile : OpenDML
File size : 3.65 GiB
Duration : 2 h 5 min
Overall bit rate : 4 181 kb/s
Movie name : Last.Flag.Flying.2017.720p.WEB-DL.XviD.AC3-FGT
Writing library : VirtualDub build 35491/release
Comment : Last.Flag.Flying.2017.720p.WEB-DL.XviD.AC3-FGT

Video
ID : 0
Format : MPEG-4 Visual
Format profile : Simple@L5
Format settings, BVOP : No
Format settings, QPel : No
Format settings, GMC : No warppoints
Format settings, Matrix : Default (H.263)
Codec ID : XVID
Codec ID/Hint : XviD
Duration : 2 h 5 min
Bit rate : 3 787 kb/s
Width : 1 280 pixels
Height : 716 pixels
Display aspect ratio : 16:9
Frame rate : 23.976 (24000/1001) FPS
Color space : YUV
Chroma subsampling : 4:2:0
Bit depth : 8 bits
Scan type : Progressive
Compression mode : Lossy
Bits/(Pixel*Frame) : 0.172
Stream size : 3.31 GiB (91%)
Writing library : Lavc58.1.100

Audio
ID : 1
Format : AC-3
Format/Info : Audio Coding 3
Format settings, Endianness : Big
Codec ID : 2000
Duration : 2 h 5 min
Bit rate mode : Constant
Bit rate : 384 kb/s
Channel(s) : 6 channels
Channel positions : Front: L C R, Side: L R, LFE
Sampling rate : 48.0 kHz
Frame rate : 31.250 FPS (1536 spf)
Bit depth : 16 bits
Compression mode : Lossy
Stream size : 344 MiB (9%)
Alignment : Aligned on interleaves
Interleave, duration : 42 ms (1.00 video frame)
Interleave, preload duratio : 512 ms
Service kind : Complete Main





General
Unique ID : 170642417912188632275376566492069811385 (0x806088C43685EF49A3BFEA78218ED4B9)
Complete name : G:\Last.Flag.Flying.2017.1080p.WEB-DL.H264.AC3-EVO\Last.Flag.Flying.2017.1080p.WEB-DL.H264.AC3-EVO.mkv
Format : Matroska
Format version : Version 4 / Version 2
File size : 4.94 GiB
Duration : 2 h 5 min
Overall bit rate : 5 655 kb/s
Movie name : EVO
Encoded date : UTC 2018-01-16 09:04:07
Writing application : mkvmerge v6.7.0 ('Back to the Ground') 64bit built on Jan 8 2014 15:10:52
Writing library : libebml v1.3.0 + libmatroska v1.4.1

Video
ID : 1
Format : AVC
Format/Info : Advanced Video Codec
Format profile : High@L4
Format settings, CABAC : Yes
Format settings, ReFrames : 4 frames
Codec ID : V_MPEG4/ISO/AVC
Duration : 2 h 5 min
Bit rate : 5 158 kb/s
Width : 1 908 pixels
Height : 1 068 pixels
Display aspect ratio : 16:9
Frame rate mode : Constant
Frame rate : 23.976 (24000/1001) FPS
Color space : YUV
Chroma subsampling : 4:2:0
Bit depth : 8 bits
Scan type : Progressive
Bits/(Pixel*Frame) : 0.106
Stream size : 4.51 GiB (91%)
Language : English
Default : Yes
Forced : No
Color range : Limited
Color primaries : BT.709
Transfer characteristics : BT.709
Matrix coefficients : BT.709

Audio
ID : 2
Format : AC-3
Format/Info : Audio Coding 3
Format settings, Endianness : Big
Codec ID : A_AC3
Duration : 2 h 5 min
Bit rate mode : Constant
Bit rate : 384 kb/s
Channel(s) : 6 channels
Channel positions : Front: L C R, Side: L R, LFE
Sampling rate : 48.0 kHz
Frame rate : 31.250 FPS (1536 spf)
Bit depth : 16 bits
Compression mode : Lossy
Stream size : 344 MiB (7%)
Language : English
Service kind : Complete Main
Default : Yes
Forced : No

Menu
00:00:00.000 : en:1
00:07:59.000 : en:2
00:18:17.000 : en:3
00:29:01.000 : en:4
00:43:30.000 : en:5
00:56:26.000 : en:6
01:03:50.000 : en:7
01:14:20.000 : en:8
01:28:14.000 : en:9
01:37:00.000 : en:10
01:50:53.000 : en:11
01:58:28.000 : en:12




Screenshots HDRip

Last Flag Flying (2017)

Last Flag Flying (2017)

Last Flag Flying (2017)


Screenshots WEB-DL 720p

Last Flag Flying (2017)

Last Flag Flying (2017)

Last Flag Flying (2017)


Screenshots WEB-DL 1080p

Last Flag Flying (2017)

Last Flag Flying (2017)

Last Flag Flying (2017)