Tags
Language
Tags

Smithsonian Ch. - Kings of the Desert (2017)

Posted By: notbanned
1080p (FullHD) / HDTV
Smithsonian Ch. - Kings of the Desert (2017)

Smithsonian Ch. - Kings of the Desert (2017)
HDTV | 1920x1080 | .MP4/AVC @ 4546 Kbps | 44 min 0 s | 1.45 GiB
Audio: English AAC 160 kbps, 2 channels | Subs: English
Genre: Documentary

In the Kalahari Desert, lions grow to be the size of grizzly bears–and they have appetites to match. These big cats need big prey to survive, but hunting giants isn't easy, even for the king of beasts. Follow the unique pride that rules over this desert empire during the worst drought in decades and see how they strategize and use their might to dominate their prey. Dry season is usually a windfall for lions, but this year, it will push these apex predators to the brink.

General
Complete name : Kings.of.the.Desert.1080p.mp4
Format : MPEG-4
Format profile : Base Media
Codec ID : isom (isom)
File size : 1.45 GiB
Duration : 44 min 0 s
Overall bit rate mode : Variable
Overall bit rate : 4 709 kb/s

Video
ID : 1
Format : AVC
Format/Info : Advanced Video Codec
Format profile : High@L4.1
Format settings, CABAC : No
Format settings, ReFrames : 2 frames
Format settings, GOP : M=1, N=12
Codec ID : avc1
Codec ID/Info : Advanced Video Coding
Duration : 44 min 0 s
Bit rate : 4 546 kb/s
Maximum bit rate : 15.5 Mb/s
Width : 1 920 pixels
Height : 1 080 pixels
Display aspect ratio : 16:9
Frame rate mode : Constant
Frame rate : 29.970 (30000/1001) FPS
Color space : YUV
Chroma subsampling : 4:2:0
Bit depth : 8 bits
Scan type : Progressive
Bits/(Pixel*Frame) : 0.073
Stream size : 1.40 GiB (97%)
Encoded date : UTC 2020-04-20 15:08:25
Tagged date : UTC 2020-04-21 12:17:28

Audio
ID : 2
Format : AAC
Format/Info : Advanced Audio Codec
Format profile : LC
Codec ID : 40
Duration : 44 min 0 s
Bit rate mode : Variable
Bit rate : 160 kb/s
Maximum bit rate : 212 kb/s
Channel(s) : 2 channels
Channel positions : Front: L R
Sampling rate : 48.0 kHz
Frame rate : 46.875 FPS (1024 spf)
Compression mode : Lossy
Stream size : 50.3 MiB (3%)
Encoded date : UTC 2020-04-21 12:17:22
Tagged date : UTC 2020-04-21 12:17:28

Text
ID : 3
Format : Timed Text
Codec ID : tx3g
Duration : 43 min 58 s
Bit rate mode : Variable
Bit rate : 88 b/s
Stream size : 28.3 KiB (0%)
Forced : No
Encoded date : UTC 2020-04-21 12:17:28
Tagged date : UTC 2020-04-21 12:17:28


Screenshots:

Smithsonian Ch. - Kings of the Desert (2017)

Smithsonian Ch. - Kings of the Desert (2017)

Smithsonian Ch. - Kings of the Desert (2017)

Smithsonian Ch. - Kings of the Desert (2017)