Tags
Language
Tags
March 2024
Su Mo Tu We Th Fr Sa
25 26 27 28 29 1 2
3 4 5 6 7 8 9
10 11 12 13 14 15 16
17 18 19 20 21 22 23
24 25 26 27 28 29 30
31 1 2 3 4 5 6

AHC - Incredible Inventions: Series 1 (2017)

Posted By: Tutorial
720p (HD) / HDTV
AHC - Incredible Inventions: Series 1 (2017)

AHC - Incredible Inventions: Series 1 (2017)
HDTV | 1280 x 720 | .MP4/AVC @ 3100 Kbps | 10x~20mn | 4.78 GB
Audio: English AAC 160 Kbps, 2 channels | Subs: English
Genre: Documentary

From the Swiss Army Knife to Hot Air Balloons, Incredible Inventions looks at how we manufacture every-day items and examines their unusual beginnings or origins.

Part 1: The Swiss Army Knife, the Winglet, English Saddle
We explore the hidden history and super science of the Swiss Army Knife, the Winglet and the English Saddle.


Part 2: The Wrist Watch, the Digital Watch, the Prosthetic Leg
We explore the hidden history and super science of the wrist watch, the digital watch and the prosthetic leg.


Part 3: The Nylon Stocking, the LED, the Toaster
We explore the hidden history and super science of the nylon stocking, the LED and the toaster.


Part 4: The Bicycle, Encryption, Energy Bars
We explore the hidden history and super science of the bicycle, encryption and energy bars.


Part 5: The Taxi Cab, Satellite Navigation, Lava Lamp
This Episode explores the hidden history and super science of the taxi cab, satellite navigation, and the lava lamp.


Part 6: The Flag, Hovercraft, Exercise Equipment
Explore the hidden history and super science of the flag, hovercraft and exercise equipment.


Part 7: The Drum, Slinky, Fencing Sword
Explore the hidden history and super science of the drum, the Slinky and the fencing sword.


Part 8: The Computer, Frisbee, Silverware
Explore the hidden history and super science of the computer, the Frisbee and silverware.


Part 9: The Glider, Super Glue, the AGA Oven
Explore the hidden history and super science of the glider, Super Glue and the AGA Oven


Part 10: Hot Air Balloons, Synthetic Rubber, Metal Detectors
Explore the hidden history and super science of hot air balloons, synthetic rubber and metal detectors.

General
Complete name : Incredible.Inventions.Series.1.01of10.Swiss.Army.Knife.mp4
Format : MPEG-4
Format profile : Base Media
Codec ID : isom (isom)
File size : 476 MiB
Duration : 20 min 23 s
Overall bit rate mode : Variable
Overall bit rate : 3 262 kb/s
Encoded date : UTC 2018-02-02 16:26:34
Tagged date : UTC 2018-02-02 16:26:34
Writing application : My MP4Box GUI 0.6.0.6

Video
ID : 1
Format : AVC
Format/Info : Advanced Video Codec
Format profile : High@L4.1
Format settings, CABAC : Yes
Format settings, ReFrames : 4 frames
Codec ID : avc1
Codec ID/Info : Advanced Video Coding
Duration : 20 min 22 s
Bit rate : 3 100 kb/s
Maximum bit rate : 10.5 Mb/s
Width : 1 280 pixels
Height : 720 pixels
Display aspect ratio : 16:9
Frame rate mode : Constant
Frame rate : 29.970 (30000/1001) FPS
Color space : YUV
Chroma subsampling : 4:2:0
Bit depth : 8 bits
Scan type : Progressive
Bits/(Pixel*Frame) : 0.112
Stream size : 452 MiB (95%)
Title : Incredible.Inventions.Series.1.01of10.Swiss.Army.Knife.720p.HDTV.x264.AAC
Writing library : x264 core 130 r2273 b3065e6
Encoding settings : cabac=1 / ref=1 / deblock=1:0:0 / analyse=0x3:0x3 / me=dia / subme=1 / psy=1 / psy_rd=1.00:0.00 / mixed_ref=0 / me_range=16 / chroma_me=1 / trellis=0 / 8x8dct=1 / cqm=0 / deadzone=21,11 / fast_pskip=1 / chroma_qp_offset=0 / threads=6 / lookahead_threads=1 / sliced_threads=0 / nr=0 / decimate=1 / interlaced=0 / bluray_compat=0 / constrained_intra=0 / bframes=3 / b_pyramid=2 / b_adapt=1 / b_bias=0 / direct=1 / weightb=1 / open_gop=0 / weightp=1 / keyint=300 / keyint_min=30 / scenecut=40 / intra_refresh=0 / rc_lookahead=0 / rc=abr / mbtree=0 / bitrate=3100 / ratetol=1.0 / qcomp=0.60 / qpmin=0 / qpmax=69 / qpstep=4 / vbv_maxrate=62500 / vbv_bufsize=78125 / nal_hrd=none / ip_ratio=1.40 / pb_ratio=1.30 / aq=1:1.00
Encoded date : UTC 2018-01-29 00:05:20
Tagged date : UTC 2018-02-02 16:26:42
Color range : Limited
Color primaries : BT.709
Transfer characteristics : BT.709
Matrix coefficients : BT.709

Audio
ID : 2
Format : AAC
Format/Info : Advanced Audio Codec
Format profile : LC
Codec ID : 40
Duration : 20 min 23 s
Bit rate mode : Variable
Bit rate : 160 kb/s
Maximum bit rate : 376 kb/s
Channel(s) : 2 channels
Channel positions : Front: L R
Sampling rate : 48.0 kHz
Frame rate : 46.875 FPS (1024 spf)
Compression mode : Lossy
Stream size : 23.3 MiB (5%)
Title : Incredible.Inventions.Series.1.01of10.Swiss.Army.Knife.720p.HDTV.x264.AAC.
Language : English
Encoded date : UTC 2018-02-02 16:26:40
Tagged date : UTC 2018-02-02 16:26:42

Text
ID : 3
Format : Timed Text
Codec ID : tx3g
Duration : 20 min 16 s
Bit rate mode : Variable
Bit rate : 125 b/s
Stream size : 18.5 KiB (0%)
Title : Incredible.Inventions.Series.1.01of10.Swiss.Army.Knife.720p.HDTV.x264.AAC.
Forced : No
Encoded date : UTC 2018-02-02 16:26:42
Tagged date : UTC 2018-02-02 16:26:42
Screenshots

AHC - Incredible Inventions: Series 1 (2017)

AHC - Incredible Inventions: Series 1 (2017)

Welcome to my blog - daily update!