Tags
Language
Tags

Hotel Transylvania 3 - Una vacanza mostruosa (2018)

Posted By: JohnSmith
SD / WEBRip IMDb
Hotel Transylvania 3 - Una vacanza mostruosa (2018)

Hotel Transylvania 3 - Una vacanza mostruosa / Hotel Transylvania 3: Summer Vacation (2018)
WEBRip MD | AVI / XviD@1770 kb/s | 720x400 | 1h 32mn | 1.24 GB
Italian (dubbed): MP3, 128 kb/s (2 ch) | Subtitles: Korean (hardcoded)
Genre: Animation | Comedy | Family | Fantasy

Mavis sorprende Dracula con un viaggio per tutta la famiglia su una lussuosa nave da crociera per mostri. Così facendo, riesce a farlo staccare dal suo albergo e dai problemi della quotidianità. A bordo della nave, i divertimenti non mancano ma qualcosa di imprevisto accade quando Dracula si imbatte nel capitano, tanto intrigante quanto pericolosa. Bilanciare famiglia, amici e una storia d'amore sul nascere è però troppo anche per un vampiro come lui.




General
Complete name : A:\Hotel.Transylvania.3.Una.Vacanza.Mostruosa.2018.iTALiAN.MD.WEBRip.R3.XviD-iSTANCE.avi
Format : AVI
Format/Info : Audio Video Interleave
File size : 1.24 GiB
Duration : 1 h 32 min
Overall bit rate : 1 908 kb/s
Writing library : VirtualDub build 35491/release

Video
ID : 0
Format : MPEG-4 Visual
Format profile : Advanced Simple@L5
Format settings, BVOP : 2
Format settings, QPel : No
Format settings, GMC : No warppoints
Format settings, Matrix : Default (H.263)
Muxing mode : Packed bitstream
Codec ID : XVID
Codec ID/Hint : XviD
Duration : 1 h 32 min
Bit rate : 1 768 kb/s
Width : 720 pixels
Height : 400 pixels
Display aspect ratio : 16:9
Frame rate : 30.000 FPS
Color space : YUV
Chroma subsampling : 4:2:0
Bit depth : 8 bits
Scan type : Progressive
Compression mode : Lossy
Bits/(Pixel*Frame) : 0.205
Stream size : 1.15 GiB (93%)
Writing library : XviD 67

Audio
ID : 1
Format : MPEG Audio
Format version : Version 1
Format profile : Layer 3
Mode : Joint stereo
Mode extension : MS Stereo
Codec ID : 55
Codec ID/Hint : MP3
Duration : 1 h 32 min
Bit rate mode : Constant
Bit rate : 128 kb/s
Channel(s) : 2 channels
Sampling rate : 48.0 kHz
Compression mode : Lossy
Stream size : 85.0 MiB (7%)
Alignment : Split accross interleaves
Interleave, duration : 33 ms (1.00 video frame)
Interleave, preload duratio : 500 ms
Writing library : LAME3.99r
Encoding settings : -m j -V 4 -q 3 -lowpass 17 -b 128




Screenshots

Hotel Transylvania 3 - Una vacanza mostruosa (2018)

Hotel Transylvania 3 - Una vacanza mostruosa (2018)

Hotel Transylvania 3 - Una vacanza mostruosa (2018)