Tags
Language
Tags
February 2024
Su Mo Tu We Th Fr Sa
28 29 30 31 1 2 3
4 5 6 7 8 9 10
11 12 13 14 15 16 17
18 19 20 21 22 23 24
25 26 27 28 29 1 2
Attention❗ To save your time, in order to download anything on this site, you must be registered 👉 HERE. If you do not have a registration yet, it is better to do it right away. ✌

( • )( • ) ( ͡⚆ ͜ʖ ͡⚆ ) (‿ˠ‿)
SpicyMags.xyz

Ghost World (2001)

Posted By: Tavaz
1080p (FullHD) / BDRip IMDb
Ghost World (2001)

Ghost World (2001)
BDRip | MKV | 1920x1080 | English / English | H264 @ 5760 kbps | AC-3 @ 448 kbps | 1 h 51 min | 4.99 GiB
Subtitles: English
Genre: Comedy, Drama

A quirky girl tries to figure out what to do now that she had graduated from high school, and forms a friendship with an eccentric 40-year-old record collector after playing a prank on him with her best friend.

8c82dfe5e8204c48ba13d404188dd2ee.mkv (5.0 GB)



General
Complete name : ./8c82dfe5e8204c48ba13d404188dd2ee.mkv
Format : Matroska
Format version : Version 4 / Version 2
File size : 4.99 GiB
Duration : 1 h 51 min
Overall bit rate : 6 401 kb/s
Encoded date : UTC 2018-01-19 00:36:31 / UTC 2018-01-17T07:20:41Z
Writing application : mkvmerge v18.0.0 ('Apricity') 64-bit
Writing library : libebml v1.3.5 + libmatroska v1.4.8 / Lavf57.7.2

Video
ID : 1
Format : AVC
Format/Info : Advanced Video Codec
Format profile : High@L4
Format settings : CABAC / 6 Ref Frames
Format settings, CABAC : Yes
Format settings, RefFrames : 6 frames
Codec ID : V_MPEG4/ISO/AVC
Duration : 1 h 51 min
Bit rate : 5 760 kb/s
Width : 1 920 pixels
Height : 1 080 pixels
Display aspect ratio : 16:9
Frame rate mode : Constant
Frame rate : 23.976 (24000/1001) FPS
Color space : YUV
Chroma subsampling : 4:2:0
Bit depth : 8 bits
Scan type : Progressive
Bits/(Pixel*Frame) : 0.116
Stream size : 4.39 GiB (88%)
Writing library : x264 core 148 r2643 5c65704
Encoding settings : cabac=1 / ref=6 / deblock=1:-3:-3 / analyse=0x3:0x133 / me=umh / subme=9 / psy=1 / psy_rd=1.10:0.25 / mixed_ref=1 / me_range=32 / chroma_me=1 / trellis=2 / 8x8dct=1 / cqm=0 / deadzone=6,6 / fast_pskip=1 / chroma_qp_offset=-4 / threads=12 / lookahead_threads=1 / sliced_threads=0 / nr=0 / decimate=1 / interlaced=0 / bluray_compat=0 / constrained_intra=0 / bframes=3 / b_pyramid=2 / b_adapt=2 / b_bias=0 / direct=3 / weightb=1 / open_gop=0 / weightp=2 / keyint=240 / keyint_min=24 / scenecut=40 / intra_refresh=0 / rc_lookahead=40 / rc=2pass / mbtree=1 / bitrate=5760 / ratetol=1.0 / qcomp=0.60 / qpmin=0 / qpmax=69 / qpstep=4 / cplxblur=20.0 / qblur=0.5 / vbv_maxrate=20000 / vbv_bufsize=25000 / nal_hrd=none / filler=0 / ip_ratio=1.40 / aq=1:1.00
Language : English
Default : Yes
Forced : No
Color range : Limited
Color primaries : BT.709
Transfer characteristics : BT.709
Matrix coefficients : BT.709
Statistics Tags Issue : mkvmerge v18.0.0 ('Apricity') 64-bit 2018-01-19 00:36:31 / mkvmerge v18.0.0 ('Apricity') 64-bit 2018-01-19 00:36:31 / UTC 2018-01-17T07:20:41Z
FromStats_BitRate : 5759027
FromStats_Duration : 01:51:32.311000000
FromStats_FrameCount : 160455
FromStats_StreamSize : 4817650216

Audio #1
ID : 2
Format : AC-3
Format/Info : Audio Coding 3
Format settings, Endianness : Big
Codec ID : A_AC3
Duration : 1 h 51 min
Bit rate mode : Constant
Bit rate : 448 kb/s
Channel(s) : 6 channels
Channel positions : Front: L C R, Side: L R, LFE
Sampling rate : 48.0 kHz
Frame rate : 31.250 FPS (1536 SPF)
Bit depth : 16 bits
Compression mode : Lossy
Delay relative to video : -5 ms
Stream size : 357 MiB (7%)
Title : Surround
Language : English
Service kind : Complete Main
Default : Yes
Forced : No
Statistics Tags Issue : mkvmerge v18.0.0 ('Apricity') 64-bit 2018-01-19 00:36:31 / mkvmerge v18.0.0 ('Apricity') 64-bit 2018-01-19 00:36:31 / UTC 2018-01-17T07:20:41Z
FromStats_BitRate : 448000
FromStats_Duration : 01:51:32.256000000
FromStats_FrameCount : 209133
FromStats_StreamSize : 374766336

Audio #2
ID : 3
Format : AC-3
Format/Info : Audio Coding 3
Format settings, Endianness : Big
Codec ID : A_AC3
Duration : 1 h 51 min
Bit rate mode : Constant
Bit rate : 192 kb/s
Channel(s) : 2 channels
Channel positions : Front: L R
Sampling rate : 48.0 kHz
Frame rate : 31.250 FPS (1536 SPF)
Bit depth : 16 bits
Compression mode : Lossy
Stream size : 153 MiB (3%)
Title : Commentary
Language : English
Service kind : Complete Main
Default : No
Forced : No
Statistics Tags Issue : mkvmerge v18.0.0 ('Apricity') 64-bit 2018-01-19 00:36:31 / mkvmerge v18.0.0 ('Apricity') 64-bit 2018-01-19 00:36:31 / UTC 2018-01-17T07:20:41Z
FromStats_BitRate : 192000
FromStats_Duration : 01:51:32.288000000
FromStats_FrameCount : 209134
FromStats_StreamSize : 160614912

Text
ID : 4
Format : UTF-8
Codec ID : S_TEXT/UTF8
Codec ID/Info : UTF-8 Plain Text
Title : SDH
Language : English
Default : Yes
Forced : No
Statistics Tags Issue : mkvmerge v18.0.0 ('Apricity') 64-bit 2018-01-19 00:36:31 / mkvmerge v18.0.0 ('Apricity') 64-bit 2018-01-19 00:36:31 / UTC 2018-01-17T07:20:41Z
FromStats_BitRate : 77
FromStats_Duration : 01:50:53.939000000
FromStats_FrameCount : 1671
FromStats_StreamSize : 64390

Menu
00:00:00.000 : :00:00:00.000
00:07:45.423 : :00:07:45.423
00:14:04.886 : :00:14:04.886
00:16:40.708 : :00:16:40.708
00:19:37.051 : :00:19:37.051
00:36:32.732 : :00:36:32.732
00:51:04.019 : :00:51:04.019
00:58:29.089 : :00:58:29.089
01:08:13.047 : :01:08:13.047
01:15:08.462 : :01:15:08.462
01:23:37.262 : :01:23:37.262
01:41:28.666 : :01:41:28.666





Ghost World (2001)


Ghost World (2001)


Ghost World (2001)


Ghost World (2001)


Ghost World (2001)