Tags
Language
Tags
July 2024
Su Mo Tu We Th Fr Sa
30 1 2 3 4 5 6
7 8 9 10 11 12 13
14 15 16 17 18 19 20
21 22 23 24 25 26 27
28 29 30 31 1 2 3

Forks Over Knives (2011)

Posted By: Tavaz
1080p (FullHD) / BDRip IMDb
Forks Over Knives (2011)

Forks Over Knives (2011)
BluRay Remux | MKV | 1920x1080 | English | MPV @ 26588 kbps | AC-3 @ 384 kbps | 1 h 36 min | 18.2 GiB
Subtitles: English
Genre: Documentary

Examines the profound claim that most, if not all, of the degenerative diseases that afflict us can be controlled, or even reversed, by rejecting our present menu of animal-based and processed foods.

d17d78a6afa2451289ad3ba6b6459c96.mkv (18.2 GB)



General
Complete name : ./d17d78a6afa2451289ad3ba6b6459c96.mkv
Format : Matroska
Format version : Version 4 / Version 2
File size : 18.2 GiB
Duration : 1 h 36 min
Overall bit rate mode : Variable
Overall bit rate : 27.1 Mb/s
Encoded date : UTC 2018-05-14 01:51:34
Writing application : mkvmerge v22.0.0 ('At The End Of The World') 64-bit
Writing library : libebml v1.3.5 + libmatroska v1.4.8

Video
ID : 1
Format : MPEG Video
Format version : Version 2
Format profile : Main@High
Format settings : BVOP
Format settings, BVOP : Yes
Format settings, Matrix : Default
Format settings, GOP : M=3, N=24
Codec ID : V_MPEG2
Codec ID/Info : MPEG 1 or 2 Video
Duration : 1 h 36 min
Bit rate mode : Variable
Bit rate : 26.6 Mb/s
Maximum bit rate : 35.0 Mb/s
Width : 1 920 pixels
Height : 1 080 pixels
Display aspect ratio : 16:9
Frame rate mode : Constant
Frame rate : 23.976 (24000/1001) FPS
Standard : NTSC
Color space : YUV
Chroma subsampling : 4:2:0
Bit depth : 8 bits
Scan type : Progressive
Compression mode : Lossy
Bits/(Pixel*Frame) : 0.535
Time code of first frame : 00:00:00:00
Time code source : Group of pictures header
GOP, Open/Closed : Closed
Stream size : 17.8 GiB (98%)
Default : Yes
Forced : No
Color primaries : BT.709
Transfer characteristics : BT.709
Matrix coefficients : BT.709

Audio
ID : 2
Format : AC-3
Format/Info : Audio Coding 3
Format settings, Endianness : Big
Codec ID : A_AC3
Duration : 1 h 35 min
Bit rate mode : Constant
Bit rate : 384 kb/s
Channel(s) : 6 channels
Channel positions : Front: L C R, Side: L R, LFE
Sampling rate : 48.0 kHz
Frame rate : 31.250 FPS (1536 SPF)
Bit depth : 16 bits
Compression mode : Lossy
Delay relative to video : 1 s 1 ms
Stream size : 264 MiB (1%)
Language : English
Service kind : Complete Main
Default : Yes
Forced : No

Text
ID : 3
Format : PGS
Codec ID : S_HDMV/PGS
Codec ID/Info : Picture based subtitle format used on BDs/HD-DVDs
Duration : 1 h 32 min
Bit rate : 137 kb/s
Count of elements : 3366
Stream size : 90.4 MiB (0%)
Language : English
Default : No
Forced : No

Menu
00:00:00.000 : en:Chapter 1
00:04:19.259 : en:Chapter 2
00:06:19.379 : en:Chapter 3
00:14:18.858 : en:Chapter 4
00:15:22.922 : en:Chapter 5
00:23:13.392 : en:Chapter 6
00:24:38.477 : en:Chapter 7
00:30:29.828 : en:Chapter 8
00:31:15.874 : en:Chapter 9
00:36:48.206 : en:Chapter 10
00:38:14.292 : en:Chapter 11
00:42:53.571 : en:Chapter 12
00:44:07.645 : en:Chapter 13
00:47:28.846 : en:Chapter 14
00:48:34.536 : en:Chapter 15
00:50:40.037 : en:Chapter 16
00:51:58.115 : en:Chapter 17
00:59:17.554 : en:Chapter 18
01:01:23.304 : en:Chapter 19
01:05:21.918 : en:Chapter 20
01:07:32.048 : en:Chapter 21
01:14:11.447 : en:Chapter 22
01:17:14.630 : en:Chapter 23
01:20:37.833 : en:Chapter 24
01:24:20.055 : en:Chapter 25
01:32:47.562 : en:Chapter 26





Forks Over Knives (2011)


Forks Over Knives (2011)


Forks Over Knives (2011)


Forks Over Knives (2011)


Forks Over Knives (2011)