Tags
Language
Tags
March 2024
Su Mo Tu We Th Fr Sa
25 26 27 28 29 1 2
3 4 5 6 7 8 9
10 11 12 13 14 15 16
17 18 19 20 21 22 23
24 25 26 27 28 29 30
31 1 2 3 4 5 6

Feng shen Di yi bu: Zhao ge feng yun / Creation of the Gods I: Kingdom of Storms (2023)

Posted By: Without
1080p (FullHD) / WEB-DL IMDb
Feng shen Di yi bu: Zhao ge feng yun / Creation of the Gods I: Kingdom of Storms (2023)

Feng shen Di yi bu: Zhao ge feng yun / Creation of the Gods I: Kingdom of Storms (2023)
WEB-DL 1080p | MKV | 2 h 28 min | 10.4 GB | 1920x1080 | AVC@9372 kb/s | 中文 AC3@640 kb/s, 6 ch
Subs: English
Genre: Adventure, Drama, Fantasy

A magnificent eastern high fantasy epic that recreates the prolonged mythical wars between humans, immortals and monsters, which happened more than three thousand years ago.



General
Feng.shen.Di.yi.bu.Zhao.ge.feng.yun.2023.1080p.AMZN.WEB-DL.DD+5.1.H.264-playWEB.mkv
Format : Matroska
Format version : Version 4 / Version 2
File size : 10.4 GB
Duration : 2 h 28 min
Overall bit rate : 10.0 Mb/s
Writing application : mkvmerge v79.0 ('Funeral Pyres') 64-bit
Writing library : libebml v1.4.4 + libmatroska v1.7.1

Video
ID : 1
Format : AVC
Format/Info : Advanced Video Codec
Format profile : High@L4
Format settings, CABAC : Yes
Format settings, ReFrames : 4 frames
Codec ID : V_MPEG4/ISO/AVC
Duration : 2 h 28 min
Bit rate mode : Constant
Bit rate : 9372 kb/s
Nominal bit rate : 10000 kb/s
Width : 1920 pixels
Height : 1080 pixels
Display aspect ratio : 16:9
Frame rate mode : Constant
Frame rate : 24.000 FPS
Color space : YUV
Chroma subsampling : 4:2:0
Bit depth : 8 bits
Scan type : Progressive
Bits/(Pixel*Frame) : 0.188
Stream size : 9.70 GB (94%)
Default : Yes
Forced : No
Color range : Limited
Color primaries : BT.709
Transfer characteristics : BT.709
Matrix coefficients : BT.709

Audio
ID : 2
Format : E-AC-3
Format/Info : Enhanced Audio Coding 3
Format settings, Endianness : Big
Codec ID : A_EAC3
Duration : 2 h 28 min
Bit rate mode : Constant
Bit rate : 640 kb/s
Channel(s) : 6 channels
Channel positions : Front: L C R, Side: L R, LFE
Sampling rate : 48.0 kHz
Frame rate : 187.500 FPS (256 spf)
Compression mode : Lossy
Stream size : 678 MB (6%)
Language : Chinese
Default : Yes
Forced : No

Text #1
ID : 3
Format : UTF-8
Codec ID : S_TEXT/UTF8
Codec ID/Info : UTF-8 Plain Text
Duration : 2 h 23 min
Bit rate : 33 b/s
Count of elements : 1409
Stream size : 35.4 KiB (0%)
Language : English
Default : No
Forced : No

Text #2
ID : 4
Format : UTF-8
Codec ID : S_TEXT/UTF8
Codec ID/Info : UTF-8 Plain Text
Duration : 2 h 23 min
Bit rate : 33 b/s
Count of elements : 1409
Stream size : 35.4 KiB (0%)
Title : SDH
Language : English
Default : No
Forced : No



WEB-DL 1080p Screenshots

Feng shen Di yi bu: Zhao ge feng yun / Creation of the Gods I: Kingdom of Storms (2023)

Feng shen Di yi bu: Zhao ge feng yun / Creation of the Gods I: Kingdom of Storms (2023)

Feng shen Di yi bu: Zhao ge feng yun / Creation of the Gods I: Kingdom of Storms (2023)

Feng shen Di yi bu: Zhao ge feng yun / Creation of the Gods I: Kingdom of Storms (2023)

Feng shen Di yi bu: Zhao ge feng yun / Creation of the Gods I: Kingdom of Storms (2023)

Feng shen Di yi bu: Zhao ge feng yun / Creation of the Gods I: Kingdom of Storms (2023)



Come Visit My Blog (•‿•)