Tags
Language
Tags

Fantastic Beasts and Where to Find Them (2016)

Posted By: JohnSmith
Fantastic Beasts and Where to Find Them (2016)

Fantastic Beasts and Where to Find Them (2016)
WEBRip | AVI / XviD@1300 kb/s | 720x304 | 2h 12mn | 1.39 GB
English: AC3, 192 kb/s (2 ch) | Subtitles: Korean (hardcoded)
WEBRip 720p | MKV / AVC@2855 kb/s | 1280x536 | 2h 12mn | 2.87 GB
English: AC3, 192 kb/s (2 ch) | Subtitles: Korean (hardcoded)
WEBRip 1080p | MKV / AVC@3882 kb/s | 1920x1080 | 2h 12mn | 3.86 GB
English: AC3, 192 kb/s (2 ch) | Subtitles: Korean (hardcoded)
Genre: Adventure | Family | Fantasy

The year is 1926 and Newt Scamander has just completed a global excursion to find and document an extraordinary array of magical creatures. Arriving in New York for a brief stopover, he might have come and gone without incident…were it not for a No-Maj (American for Muggle) named Jacob, a misplaced magical case, and the escape of some of Newt's fantastic beasts, which could spell trouble for both the wizarding and No-Maj worlds.

IMDB - Nominated for 5 BAFTA Film Awards. Another 2 wins & 17 nominations.



General
Complete name : A:\Fantastic.Beasts.and.Where.to.Find.Them.2016.HC.HDRip.XviD.AC3-EVO\Fantastic.Beasts.and.Where.to.Find.Them.2016.HC.HDRip.XviD.AC3-EVO.avi
Format : AVI
Format/Info : Audio Video Interleave
Format profile : OpenDML
Format settings : rec
File size : 1.39 GiB
Duration : 2 h 12 min
Overall bit rate : 1 501 kb/s
Writing application : AVI-Mux GUI 1.17.8.3, Feb 16 201019:42:50

Video
ID : 0
Format : MPEG-4 Visual
Codec ID : XVID
Codec ID/Hint : XviD
Duration : 2 h 12 min
Source duration : 9 s 813 ms
Bit rate : 1 300 b/s
Width : 720 pixels
Height : 304 pixels
Display aspect ratio : 2.35:1
Frame rate : 29.970 (29970/1000) FPS
Color space : YUV
Chroma subsampling : 4:2:0
Compression mode : Lossy
Bits/(Pixel*Frame) : 0.000
Stream size : 831 KiB (0%)

Audio
ID : 1
Format : AC-3
Format/Info : Audio Coding 3
Codec ID : 2000
Duration : 2 h 12 min
Source duration : 10 s 48 ms
Bit rate mode : Constant
Bit rate : 192 kb/s
Channel(s) : 2 channels
Sampling rate : 48.0 kHz
Compression mode : Lossy
Stream size : 236 KiB (0%)
Alignment : Aligned on interleaves
Interleave, duration : 62 ms (1.87 video frames)
Interleave, preload duratio : 192 ms
Title : T2_Audio - English





General
Unique ID : 177539233224380701990836126564798346643 (0x8590D003BCF2125DB4167E9A6EEAB593)
Complete name : A:\Fantastic.Beasts.and.Where.to.Find.Them.2016.720p.HC.HDRip.X264.AC3-EVO\Fantastic.Beasts.and.Where.to.Find.Them.2016.720p.HC.HDRip.X264.AC3-EVO.mkv
Format : Matroska
Format version : Version 4 / Version 2
File size : 2.87 GiB
Duration : 2 h 12 min
Overall bit rate : 3 088 kb/s
Movie name : EVO
Encoded date : UTC 2017-01-15 05:14:26 / UTC 2017-01-15T04:46:04Z
Writing application : mkvmerge v6.7.0 ('Back to the Ground') 64bit built on Jan 8 2014 15:10:52
Writing library : libebml v1.3.0 + libmatroska v1.4.1 / Lavf55.12.0

Video
ID : 1
Format : AVC
Format/Info : Advanced Video Codec
Format profile : High@L4.1
Format settings, CABAC : Yes
Format settings, ReFrames : 4 frames
Codec ID : V_MPEG4/ISO/AVC
Duration : 2 h 12 min
Bit rate : 2 855 kb/s
Width : 1 280 pixels
Height : 536 pixels
Display aspect ratio : 2.40:1
Frame rate mode : Constant
Frame rate : 29.970 (29970/1000) FPS
Color space : YUV
Chroma subsampling : 4:2:0
Bit depth : 8 bits
Scan type : Progressive
Bits/(Pixel*Frame) : 0.139
Stream size : 2.63 GiB (92%)
Writing library : x264 core 142 r2479 dd79a61
Encoding settings : cabac=1 / ref=1 / deblock=1:0:0 / analyse=0x3:0x113 / me=hex / subme=2 / psy=1 / psy_rd=1.00:0.00 / mixed_ref=0 / me_range=16 / chroma_me=1 / trellis=0 / 8x8dct=1 / cqm=0 / deadzone=21,11 / fast_pskip=1 / chroma_qp_offset=0 / threads=12 / lookahead_threads=4 / sliced_threads=0 / nr=0 / decimate=1 / interlaced=0 / bluray_compat=0 / constrained_intra=0 / bframes=3 / b_pyramid=2 / b_adapt=1 / b_bias=0 / direct=1 / weightb=1 / open_gop=0 / weightp=1 / keyint=300 / keyint_min=30 / scenecut=40 / intra_refresh=0 / rc_lookahead=10 / rc=abr / mbtree=1 / bitrate=2855 / ratetol=1.0 / qcomp=0.60 / qpmin=0 / qpmax=69 / qpstep=4 / vbv_maxrate=62500 / vbv_bufsize=78125 / nal_hrd=none / filler=0 / ip_ratio=1.40 / aq=1:1.00
Default : Yes
Forced : No
Color range : Limited
Color primaries : BT.709
Transfer characteristics : BT.709
Matrix coefficients : BT.709

Audio
ID : 2
Format : AC-3
Format/Info : Audio Coding 3
Mode extension : CM (complete main)
Format settings, Endianness : Big
Codec ID : A_AC3
Duration : 2 h 12 min
Bit rate mode : Constant
Bit rate : 192 kb/s
Channel(s) : 2 channels
Channel positions : Front: L R
Sampling rate : 48.0 kHz
Frame rate : 31.250 FPS (1536 spf)
Compression mode : Lossy
Delay relative to video : -5 ms
Stream size : 182 MiB (6%)
Title : Stereo
Language : English
Default : Yes
Forced : No





General
Unique ID : 193476167302360536068483059849326865679 (0x918E2787A11AA6F7A13F65DE11F1AD0F)
Complete name : A:\Fantastic.Beasts.and.Where.to.Find.Them.2016.1080p.HC.HDRip.X264.AC3-EVO\Fantastic.Beasts.and.Where.to.Find.Them.2016.1080p.HC.HDRip.X264.AC3-EVO.mkv
Format : Matroska
Format version : Version 4 / Version 2
File size : 3.86 GiB
Duration : 2 h 12 min
Overall bit rate : 4 156 kb/s
Movie name : EVO
Encoded date : UTC 2017-01-15 04:57:30
Writing application : mkvmerge v6.7.0 ('Back to the Ground') 64bit built on Jan 8 2014 15:10:52
Writing library : libebml v1.3.0 + libmatroska v1.4.1

Video
ID : 1
Format : AVC
Format/Info : Advanced Video Codec
Format profile : Baseline@L4
Format settings, CABAC : No
Format settings, ReFrames : 1 frame
Codec ID : V_MPEG4/ISO/AVC
Duration : 2 h 12 min
Bit rate : 3 882 kb/s
Width : 1 920 pixels
Height : 1 080 pixels
Display aspect ratio : 16:9
Frame rate mode : Constant
Frame rate : 29.970 (29970/1000) FPS
Color space : YUV
Chroma subsampling : 4:2:0
Bit depth : 8 bits
Scan type : Progressive
Bits/(Pixel*Frame) : 0.062
Stream size : 3.60 GiB (93%)
Default : Yes
Forced : No

Audio
ID : 2
Format : AC-3
Format/Info : Audio Coding 3
Mode extension : CM (complete main)
Format settings, Endianness : Big
Codec ID : A_AC3
Duration : 2 h 12 min
Bit rate mode : Constant
Bit rate : 192 kb/s
Channel(s) : 2 channels
Channel positions : Front: L R
Sampling rate : 48.0 kHz
Frame rate : 31.250 FPS (1536 spf)
Compression mode : Lossy
Stream size : 182 MiB (5%)
Language : English
Default : Yes
Forced : No




Screenshots WEBRip

Fantastic Beasts and Where to Find Them (2016)

Fantastic Beasts and Where to Find Them (2016)

Fantastic Beasts and Where to Find Them (2016)


Screenshots WEBRip 720p

Fantastic Beasts and Where to Find Them (2016)

Fantastic Beasts and Where to Find Them (2016)

Fantastic Beasts and Where to Find Them (2016)


Screenshots WEBRip 1080p

Fantastic Beasts and Where to Find Them (2016)

Fantastic Beasts and Where to Find Them (2016)

Fantastic Beasts and Where to Find Them (2016)