Tags
Language
Tags

Designated Survivor S01 [Full Season]

Posted By: Tavaz
1080p (FullHD) / WEBRip IMDb
Designated Survivor S01 [Full Season]

Designated Survivor S01 [Full Season]
WEBRip | MKV | 1920x1080 | English | H264 @ 10526 kbps | AC-3 @ 384 kbps | 42 min 49 s | 21x3.33 GiB
Subtitles: French, English
Genre: Drama, Thriller

A low-level Cabinet member becomes President of the United States after a catastrophic attack kills everyone above him in the line of succession.


Designated.Survivor.S01E09.1080p.WEBRip.X264-DEFLATE.mkv (3.2 GB)
Designated.Survivor.S01E20.Bombshell.1080p.AMZN.WEBRip.DD+5.1.x264-CasStudio.mkv (2.3 GB)
Designated.Survivor.S01E05.1080p.WEBRip.X264-DEFLATE.mkv (2.9 GB)
Designated.Survivor.S01E03.INTERNAL.1080p.WEBRip.X264-DEFLATE.mkv (2.8 GB)
Designated.Survivor.S01E08.1080p.WEBRip.X264-DEFLATE.mkv (3.0 GB)
Designated.Survivor.S01E13.Backfire.1080p.AMZN.WEBRip.DD+5.1.x264-CasStudio.mkv (2.1 GB)
Designated.Survivor.S01E17.The.Ninth.Seat.1080p.AMZN.WEBRip.DD+5.1.x264-CasStudio.mkv (2.9 GB)
Designated.Survivor.S01E04.1080p.WEBRip.X264-DEFLATE.mkv (2.9 GB)
Designated.Survivor.S01E21.Brace.for.Impact.1080p.AMZN.WEBRip.DD+5.1.x264-CasStudio.mkv (2.9 GB)
Designated.Survivor.S01E16.Party.Lines.1080p.AMZN.WEBRip.DD+5.1.x264-CasStudio.mkv (2.5 GB)
Designated.Survivor.S01E11.Warriors.1080p.AMZN.WEBRip.DD+5.1.x264-CasStudio.mkv (2.3 GB)
Designated.Survivor.S01E18.Lazarus.1080p.AMZN.WEBRip.DD+5.1.x264-CasStudio.mkv (2.6 GB)
Designated.Survivor.S01E06.1080p.WEBRip.X264-DEFLATE.mkv (3.2 GB)
Designated.Survivor.S01E02.INTERNAL.1080p.WEBRip.X264-DEFLATE.mkv (3.0 GB)
Designated.Survivor.S01E12.The.End.of.the.Beginning.1080p.AMZN.WEBRip.DD+5.1.x264-CasStudio.mkv (2.1 GB)
Designated.Survivor.S01E01.INTERNAL.1080p.WEBRip.X264-DEFLATE.mkv (3.3 GB)
Designated.Survivor.S01E19.Misalliance.1080p.AMZN.WEBRip.DD+5.1.x264-CasStudio.mkv (3.0 GB)
Designated.Survivor.S01E15.One.Hundred.Days.1080p.AMZN.WEBRip.DD+5.1.x264-CasStudio.mkv (2.9 GB)
Designated.Survivor.S01E10.1080p.WEBRip.X264-DEFLATE.mkv (2.9 GB)
Designated.Survivor.S01E14.Commander-in-Chief.1080p.AMZN.WEBRip.DD+5.1.x264-CasStudio.mkv (2.3 GB)
Designated.Survivor.S01E07.1080p.WEBRip.X264-DEFLATE.mkv (3.1 GB)



General
Unique ID : 109250544685749155367198321105677750392 (0x5230E3B93A1DE8A1F2769FEE479E9078)
Complete name : ./Designated.Survivor.S01.1080p.AMZN.WEBRip.DD5.1.x264-MiXED/Designated.Survivor.S01E01.INTERNAL.1080p.WEBRip.X264-DEFLATE.mkv
Format : Matroska
Format version : Version 4 / Version 2
File size : 3.33 GiB
Duration : 42 min 49 s
Overall bit rate : 11.1 Mb/s
Encoded date : UTC 2016-09-26 00:01:01
Writing application : mkvmerge v9.3.1 ('Mask Machine') 64bit
Writing library : libebml v1.3.4 + libmatroska v1.4.5

Video
ID : 1
Format : AVC
Format/Info : Advanced Video Codec
Format profile : High@L4.1
Format settings : CABAC / 4 Ref Frames
Format settings, CABAC : Yes
Format settings, RefFrames : 4 frames
Codec ID : V_MPEG4/ISO/AVC
Duration : 42 min 49 s
Bit rate : 10.5 Mb/s
Width : 1 920 pixels
Height : 1 080 pixels
Display aspect ratio : 16:9
Frame rate mode : Constant
Frame rate : 23.976 (24000/1001) FPS
Color space : YUV
Chroma subsampling : 4:2:0
Bit depth : 8 bits
Scan type : Progressive
Bits/(Pixel*Frame) : 0.212
Stream size : 3.15 GiB (95%)
Writing library : x264 core 148 r2705+3 3f5ed56 / tmod 418b0d4 X86_64
Encoding settings : cabac=1 / ref=4 / deblock=1:-3:-3 / analyse=0x3:0x133 / me=umh / subme=11 / psy=1 / fade_compensate=0.00 / psy_rd=1.05:0.15 / mixed_ref=1 / me_range=48 / chroma_me=1 / trellis=2 / 8x8dct=1 / cqm=0 / deadzone=21,11 / fast_pskip=0 / chroma_qp_offset=-3 / threads=12 / lookahead_threads=3 / sliced_threads=0 / nr=0 / decimate=0 / interlaced=0 / bluray_compat=0 / constrained_intra=0 / fgo=0 / bframes=10 / b_pyramid=2 / b_adapt=2 / b_bias=0 / direct=3 / weightb=1 / open_gop=0 / weightp=2 / keyint=250 / keyint_min=23 / scenecut=40 / intra_refresh=0 / rc=crf / mbtree=0 / crf=17.0000 / qcomp=0.75 / qpmin=0:0:0 / qpmax=69:69:69 / qpstep=4 / ip_ratio=1.40 / pb_ratio=1.30 / aq=3:0.80 / aq-sensitivity=10.00 / aq-factor=1.00:1.00:1.00 / aq2=0 / aq3=0
Language : English
Default : Yes
Forced : No

Audio
ID : 2
Format : AC-3
Format/Info : Audio Coding 3
Format settings, Endianness : Big
Codec ID : A_AC3
Duration : 42 min 49 s
Bit rate mode : Constant
Bit rate : 384 kb/s
Channel(s) : 6 channels
Channel positions : Front: L C R, Side: L R, LFE
Sampling rate : 48.0 kHz
Frame rate : 31.250 FPS (1536 SPF)
Bit depth : 16 bits
Compression mode : Lossy
Stream size : 118 MiB (3%)
Language : English
Service kind : Complete Main
Default : Yes
Forced : No

Text #1
ID : 3
Format : UTF-8
Codec ID : S_TEXT/UTF8
Codec ID/Info : UTF-8 Plain Text
Title : English
Language : English
Default : No
Forced : No

Text #2
ID : 4
Format : UTF-8
Codec ID : S_TEXT/UTF8
Codec ID/Info : UTF-8 Plain Text
Title : English (SDH)
Language : English
Default : No
Forced : No

Text #3
ID : 5
Format : UTF-8
Codec ID : S_TEXT/UTF8
Codec ID/Info : UTF-8 Plain Text
Title : French
Language : French
Default : No
Forced : No





Designated Survivor S01 [Full Season]


Designated Survivor S01 [Full Season]


Designated Survivor S01 [Full Season]


Designated Survivor S01 [Full Season]

All episodes