Tags
Language
Tags

Castaway on the Moon (2009)

Posted By: Tavaz
1080p (FullHD) / BDRip IMDb
Castaway on the Moon (2009)

Castaway on the Moon (2009)
BDRip | MKV | 1920x1080 | 한국어 | H264 @ 5760 kbps | AC-3 @ 448 kbps | 1 h 57 min | 5.07 GiB
Subtitles: English
Genre: Drama, Comedy, Romance

Mr. Kim is jobless, lost in debt and has been dumped by his girlfriend. He decides to end it all by jumping into the Han River - only to find himself washed up on a small, mid-river island. He soon abandons thoughts of suicide or rescue and begins a new life as a castaway. His antics catch the attention of a young woman whose apartment overlooks the river. Her discovery changes both their lives.

bdbacdbf8aa0f3ac090b5703975faa87.mkv (5.1 GB)



General
Unique ID : 24855864906586298374183572765438276392 (0x12B310C171B55BB94C633F3E6EBA7328)
Complete name : ./bdbacdbf8aa0f3ac090b5703975faa87.mkv
Format : Matroska
Format version : Version 4 / Version 2
File size : 5.07 GiB
Duration : 1 h 57 min
Overall bit rate : 6 196 kb/s
Movie name : Castaway.on.the.Moon.2009.1080p.BluRay.x264-nikt0
Encoded date : UTC 2020-12-14 23:08:01 / UTC 2020-12-14T03:44:17Z
Writing application : mkvmerge v47.0.0 ('Black Flag') 64-bit
Writing library : libebml v1.3.10 + libmatroska v1.5.2 / Lavf57.7.2

Video
ID : 1
Format : AVC
Format/Info : Advanced Video Codec
Format profile : High@L4
Format settings : CABAC / 4 Ref Frames
Format settings, CABAC : Yes
Format settings, RefFrames : 4 frames
Codec ID : V_MPEG4/ISO/AVC
Duration : 1 h 57 min
Bit rate : 5 760 kb/s
Width : 1 920 pixels
Height : 1 080 pixels
Display aspect ratio : 16:9
Frame rate mode : Constant
Frame rate : 23.976 (24000/1001) FPS
Color space : YUV
Chroma subsampling : 4:2:0
Bit depth : 8 bits
Scan type : Progressive
Bits/(Pixel*Frame) : 0.116
Stream size : 4.60 GiB (91%)
Writing library : x264 core 155 r2901 7d0ff22
Encoding settings : cabac=1 / ref=4 / deblock=1:-3:-3 / analyse=0x3:0x133 / me=umh / subme=9 / psy=1 / psy_rd=1.10:0.25 / mixed_ref=1 / me_range=32 / chroma_me=1 / trellis=2 / 8x8dct=1 / cqm=0 / deadzone=6,6 / fast_pskip=1 / chroma_qp_offset=-4 / threads=34 / lookahead_threads=3 / sliced_threads=0 / nr=0 / decimate=1 / interlaced=0 / bluray_compat=0 / constrained_intra=0 / bframes=6 / b_pyramid=2 / b_adapt=2 / b_bias=0 / direct=3 / weightb=1 / open_gop=0 / weightp=2 / keyint=240 / keyint_min=24 / scenecut=40 / intra_refresh=0 / rc_lookahead=40 / rc=2pass / mbtree=1 / bitrate=5760 / ratetol=1.0 / qcomp=0.60 / qpmin=0 / qpmax=69 / qpstep=4 / cplxblur=20.0 / qblur=0.5 / vbv_maxrate=20000 / vbv_bufsize=25000 / nal_hrd=none / filler=0 / ip_ratio=1.40 / aq=1:1.00
Language : English
Default : Yes
Forced : No
Color range : Limited
Color primaries : BT.709
Transfer characteristics : BT.709
Matrix coefficients : BT.709
Statistics Tags Issue : mkvmerge v47.0.0 ('Black Flag') 64-bit 2020-12-14 23:08:01 / mkvmerge v47.0.0 ('Black Flag') 64-bit 2020-12-14 23:08:01 / UTC 2020-12-14T03:44:17Z
FromStats_BitRate : 5749731
FromStats_Duration : 01:57:09.022000000
FromStats_FrameCount : 168528
FromStats_StreamSize : 5051873406

Audio
ID : 2
Format : AC-3
Format/Info : Audio Coding 3
Format settings, Endianness : Big
Codec ID : A_AC3
Duration : 1 h 57 min
Bit rate mode : Constant
Bit rate : 448 kb/s
Channel(s) : 6 channels
Channel positions : Front: L C R, Side: L R, LFE
Sampling rate : 48.0 kHz
Frame rate : 31.250 FPS (1536 SPF)
Bit depth : 16 bits
Compression mode : Lossy
Stream size : 375 MiB (7%)
Title : Surround
Language : Korean
Service kind : Complete Main
Default : Yes
Forced : No
Statistics Tags Issue : mkvmerge v47.0.0 ('Black Flag') 64-bit 2020-12-14 23:08:01 / mkvmerge v47.0.0 ('Black Flag') 64-bit 2020-12-14 23:08:01 / UTC 2020-12-14T03:44:17Z
FromStats_BitRate : 448000
FromStats_Duration : 01:56:17.984000000
FromStats_FrameCount : 218062
FromStats_StreamSize : 390767104

Text
ID : 3
Format : UTF-8
Codec ID : S_TEXT/UTF8
Codec ID/Info : UTF-8 Plain Text
Title : Forced
Language : English
Default : Yes
Forced : Yes
Statistics Tags Issue : mkvmerge v47.0.0 ('Black Flag') 64-bit 2020-12-14 23:08:01 / mkvmerge v47.0.0 ('Black Flag') 64-bit 2020-12-14 23:08:01 / UTC 2020-12-14T03:44:17Z
FromStats_BitRate : 16
FromStats_Duration : 01:50:06.600000000
FromStats_FrameCount : 512
FromStats_StreamSize : 13908

Menu
00:00:00.000 : :Chapter 1
00:04:59.633 : :Chapter 2
00:14:10.433 : :Chapter 3
00:19:53.025 : :Chapter 4
00:27:29.690 : :Chapter 5
00:33:44.356 : :Chapter 6
00:38:44.113 : :Chapter 7
00:46:28.536 : :Chapter 8
00:50:42.998 : :Chapter 9
00:57:02.669 : :Chapter 10
01:06:39.537 : :Chapter 11
01:14:40.351 : :Chapter 12
01:23:41.767 : :Chapter 13
01:31:00.455 : :Chapter 14
01:36:22.902 : :Chapter 15
01:41:12.316 : :Chapter 16
01:44:40.941 : :Chapter 17
01:51:43.197 : :Chapter 18





Castaway on the Moon (2009)


Castaway on the Moon (2009)


Castaway on the Moon (2009)


Castaway on the Moon (2009)


Castaway on the Moon (2009)