Tags
Language
Tags
July 2024
Su Mo Tu We Th Fr Sa
30 1 2 3 4 5 6
7 8 9 10 11 12 13
14 15 16 17 18 19 20
21 22 23 24 25 26 27
28 29 30 31 1 2 3

Brats (2024)

Posted By: Without
1080p (FullHD) / WEB-DL IMDb
Brats (2024)

Brats (2024)
WEB-DL 720p | MKV | 1 h 33 min | 2.28 GB | 1280x720 | AVC@3238 kb/s | English AC3@256 kb/s, 6 ch
WEB-DL 1080p | MKV | 1 h 33 min | 4.18 GB | 1920x1080 | AVC@6161 kb/s | English AC3@256 kb/s, 6 ch
Subs: English, Español
Genre: Documentary

Centers on 1980s films starring the 'Brat Pack' and their profound impact on the young stars' lives.



General
BRATS.2024.720p.DSNP.WEB-DL.DDP5.1.H.264-FLUX.mkv
Format : Matroska
Format version : Version 4 / Version 2
File size : 2.28 GB
Duration : 1 h 33 min
Overall bit rate mode : Variable
Overall bit rate : 3496 kb/s
Writing application : mkvmerge v79.0 ('Funeral Pyres') 64-bit
Writing library : libebml v1.4.4 + libmatroska v1.7.1

Video
ID : 1
Format : AVC
Format/Info : Advanced Video Codec
Format profile : High@L3.1
Format settings, CABAC : Yes
Format settings, ReFrames : 4 frames
Codec ID : V_MPEG4/ISO/AVC
Duration : 1 h 33 min
Bit rate mode : Variable
Bit rate : 3238 kb/s
Maximum bit rate : 6375 kb/s
Width : 1280 pixels
Height : 720 pixels
Display aspect ratio : 16:9
Frame rate mode : Constant
Frame rate : 23.976 (24000/1001) FPS
Color space : YUV
Chroma subsampling : 4:2:0
Bit depth : 8 bits
Scan type : Progressive
Bits/(Pixel*Frame) : 0.147
Stream size : 2.11 GB (93%)
Language : English
Default : Yes
Forced : No
Color range : Limited
Color primaries : BT.709
Transfer characteristics : BT.709
Matrix coefficients : BT.709

Audio
ID : 2
Format : E-AC-3
Format/Info : Enhanced Audio Coding 3
Format settings, Endianness : Big
Codec ID : A_EAC3
Duration : 1 h 33 min
Bit rate mode : Constant
Bit rate : 256 kb/s
Channel(s) : 6 channels
Channel positions : Front: L C R, Side: L R, LFE
Sampling rate : 48.0 kHz
Frame rate : 187.500 FPS (256 spf)
Compression mode : Lossy
Stream size : 171 MB (7%)
Language : English
Default : Yes
Forced : No

Text #1
ID : 3
Format : UTF-8
Codec ID : S_TEXT/UTF8
Codec ID/Info : UTF-8 Plain Text
Duration : 1 h 30 min
Bit rate : 126 b/s
Count of elements : 2316
Stream size : 83.6 KiB (0%)
Language : English
Default : No
Forced : No

Text #2
ID : 4
Format : UTF-8
Codec ID : S_TEXT/UTF8
Codec ID/Info : UTF-8 Plain Text
Duration : 1 h 30 min
Bit rate : 132 b/s
Count of elements : 2404
Stream size : 87.9 KiB (0%)
Title : SDH
Language : English
Default : No
Forced : No

Text #3
ID : 5
Format : UTF-8
Codec ID : S_TEXT/UTF8
Codec ID/Info : UTF-8 Plain Text
Duration : 1 h 29 min
Bit rate : 115 b/s
Count of elements : 2109
Stream size : 75.5 KiB (0%)
Title : Latin American
Language : Español
Default : No
Forced : No


General
BRATS.2024.1080p.DSNP.WEB-DL.DDP5.1.H.264-FLUX.mkv
Format : Matroska
Format version : Version 4 / Version 2
File size : 4.18 GB
Duration : 1 h 33 min
Overall bit rate mode : Variable
Overall bit rate : 6419 kb/s
Writing application : mkvmerge v79.0 ('Funeral Pyres') 64-bit
Writing library : libebml v1.4.4 + libmatroska v1.7.1

Video
ID : 1
Format : AVC
Format/Info : Advanced Video Codec
Format profile : High@L4
Format settings, CABAC : Yes
Format settings, ReFrames : 4 frames
Codec ID : V_MPEG4/ISO/AVC
Duration : 1 h 33 min
Bit rate mode : Variable
Bit rate : 6161 kb/s
Maximum bit rate : 12.7 Mb/s
Width : 1920 pixels
Height : 1080 pixels
Display aspect ratio : 16:9
Frame rate mode : Constant
Frame rate : 23.976 (24000/1001) FPS
Color space : YUV
Chroma subsampling : 4:2:0
Bit depth : 8 bits
Scan type : Progressive
Bits/(Pixel*Frame) : 0.124
Stream size : 4.01 GB (96%)
Language : English
Default : Yes
Forced : No
Color range : Limited
Color primaries : BT.709
Transfer characteristics : BT.709
Matrix coefficients : BT.709

Audio
ID : 2
Format : E-AC-3
Format/Info : Enhanced Audio Coding 3
Format settings, Endianness : Big
Codec ID : A_EAC3
Duration : 1 h 33 min
Bit rate mode : Constant
Bit rate : 256 kb/s
Channel(s) : 6 channels
Channel positions : Front: L C R, Side: L R, LFE
Sampling rate : 48.0 kHz
Frame rate : 187.500 FPS (256 spf)
Compression mode : Lossy
Stream size : 171 MB (4%)
Language : English
Default : Yes
Forced : No

Text #1
ID : 3
Format : UTF-8
Codec ID : S_TEXT/UTF8
Codec ID/Info : UTF-8 Plain Text
Duration : 1 h 30 min
Bit rate : 126 b/s
Count of elements : 2316
Stream size : 83.6 KiB (0%)
Language : English
Default : No
Forced : No

Text #2
ID : 4
Format : UTF-8
Codec ID : S_TEXT/UTF8
Codec ID/Info : UTF-8 Plain Text
Duration : 1 h 30 min
Bit rate : 132 b/s
Count of elements : 2404
Stream size : 87.9 KiB (0%)
Title : SDH
Language : English
Default : No
Forced : No

Text #3
ID : 5
Format : UTF-8
Codec ID : S_TEXT/UTF8
Codec ID/Info : UTF-8 Plain Text
Duration : 1 h 29 min
Bit rate : 115 b/s
Count of elements : 2109
Stream size : 75.5 KiB (0%)
Title : Latin American
Language : Español
Default : No
Forced : No



WEB-DL 720p Screenshots

Brats (2024)

Brats (2024)

Brats (2024)

Brats (2024)


WEB-DL 1080p Screenshots

Brats (2024)

Brats (2024)

Brats (2024)

Brats (2024)



Come Visit My Blog (•‿•)