Tags
Language
Tags
April 2024
Su Mo Tu We Th Fr Sa
31 1 2 3 4 5 6
7 8 9 10 11 12 13
14 15 16 17 18 19 20
21 22 23 24 25 26 27
28 29 30 1 2 3 4

History Channel - Banned from the Bible Secrets of the Apostles (2012)

Posted By: Tutorial
720p (HD) / HDTV
History Channel - Banned from the Bible Secrets of the Apostles (2012)

History Channel - Banned from the Bible Secrets of the Apostles (2012)
HDTV | 1280 x 720 | .MKV/AVC @ 2603 Kbps | 41 min 54 s | 874 MB
Audio: English MP2 256 Kbps, 2 channels | Subs: None
Genre: Documentary, History

When Jesus was a boy, did he kill another child? Was Mary Magdalene a prostitute or an apostle?
Did Cain commit incest? Will there be an apocalypse, or is this God's trick to scare us?
The answers to these questions aren't found in the Bible as we know it, but they exist in scriptures banned when powerful leaders deemed them unacceptable for reasons both political and religious.
"Banned From The Bible" reveals some of these alternative tales and examines why they were "too hot for Christianity."

Related Documentaries:
The Bible (2013)
Catholicism (2011)
National Geographic Classics - Biblical Mysteries (2006 - 2012)
National Geographic - Deadly Journeys of the Apostles (2015)
Channel 5 - Apocalypse Code: The Bible Prediction (2015)
Channel 4 - Crucifixion (2012)
BBC - Bible's Buried Secrets (2011)
BBC - Jesus: The Real Story (2001)
Smithsonian Channel - The Gospel of Jesus's Wife (2014)

General
Unique ID : 216609485819703486610490695519799734164 (0xA2F5783102D2B127A160132FCD91EF94)
Complete name : History.Channel.Banned.from.the.Bible.Secrets.of.the.Apostles.mkv
Format : Matroska
Format version : Version 2
File size : 874 MiB
Duration : 41 min 54 s
Overall bit rate : 2 917 kb/s
Encoded date : UTC 2012-04-09 08:46:56
Writing application : mkvmerge v5.2.1 ('A Far Off Place') built on Jan 2 2012 23:21:10
Writing library : libebml v1.2.3 + libmatroska v1.3.0

Video
ID : 1
Format : AVC
Format/Info : Advanced Video Codec
Format profile : High@L4.1
Format settings, CABAC : Yes
Format settings, ReFrames : 5 frames
Codec ID : V_MPEG4/ISO/AVC
Duration : 41 min 54 s
Bit rate : 2 603 kb/s
Width : 1 280 pixels
Height : 720 pixels
Display aspect ratio : 16:9
Frame rate mode : Constant
Frame rate : 25.000 FPS
Color space : YUV
Chroma subsampling : 4:2:0
Bit depth : 8 bits
Scan type : Progressive
Bits/(Pixel*Frame) : 0.113
Stream size : 780 MiB (89%)
Writing library : x264 core 120 r2164 da19765
Encoding settings : cabac=1 / ref=5 / deblock=1:0:0 / analyse=0x3:0x113 / me=umh / subme=8 / psy=1 / psy_rd=1.00:0.00 / mixed_ref=1 / me_range=16 / chroma_me=1 / trellis=1 / 8x8dct=1 / cqm=0 / deadzone=21,11 / fast_pskip=1 / chroma_qp_offset=-2 / threads=6 / sliced_threads=0 / nr=0 / decimate=1 / interlaced=0 / bluray_compat=0 / constrained_intra=0 / bframes=3 / b_pyramid=2 / b_adapt=2 / b_bias=0 / direct=3 / weightb=1 / open_gop=0 / weightp=2 / keyint=250 / keyint_min=25 / scenecut=40 / intra_refresh=0 / rc_lookahead=50 / rc=crf / mbtree=1 / crf=20.0 / qcomp=0.60 / qpmin=0 / qpmax=69 / qpstep=4 / ip_ratio=1.40 / aq=1:1.00
Language : English
Default : Yes
Forced : No

Audio
ID : 2
Format : MPEG Audio
Format version : Version 1
Format profile : Layer 2
Codec ID : A_MPEG/L2
Codec ID/Hint : MP2
Duration : 41 min 54 s
Bit rate mode : Constant
Bit rate : 256 kb/s
Channel(s) : 2 channels
Sampling rate : 48.0 kHz
Compression mode : Lossy
Delay relative to video : 96 ms
Stream size : 76.7 MiB (9%)
Default : Yes
Forced : No
Screenshots

History Channel - Banned from the Bible Secrets of the Apostles (2012)

History Channel - Banned from the Bible Secrets of the Apostles (2012)

History Channel - Banned from the Bible Secrets of the Apostles (2012)

Welcome to my blog - daily update!