Tags
Language
Tags

BBC - Russia with Simon Reeve (2017)

Posted By: notbanned
BBC - Russia with Simon Reeve (2017)

BBC - Russia with Simon Reeve (2017)
HDTV | 1280x720 | .MKV/AVC @ 2980 Kbps | 3x~59min | 4.00 GiB
Audio: English AAC 129 kbps, 2 channels | Subs: English
Genre: Documentary

100 years after the Russian Revolution, Simon Reeve embarks on an extraordinary journey across Russia.
Part 1.
Setting out amongst the active, snow-capped volcanoes of Kamchatka, over 4,000 miles from Moscow, Simon explores one of the remotest regions of the country. The population of Russia's far east has fallen dramatically in recent years, but travelling by chopper and skidoo, Simon finds indigenous reindeer herders who are still eking out a fragile existence. In the port city of Vladivostok, Simon visits a newly built mega casino, designed to attract high rollers and tourists from neighbouring China. Deep in the forest, Simon meets the inspirational conservationist who has created a sanctuary for the country's most iconic predator, the giant Amur tiger. Simon ends his journey on the rim of a giant crater that has emerged in the Siberian landscape - chilling evidence of the impact of global climate change.

Part 2.
The second leg begins in Siberia and takes him to Russia's far south west and the majestic Caucasus Mountains. From Lake Baikal, the oldest and deepest lake on Earth, Simon takes the Trans-Siberian Railway to the city of Krasnoyarsk, the scene of brutal violence in the 1990s, and now the location of a cafe paying homage to Vladimir Putin. Simon is introduced to a Siberian community that worships a former traffic cop they believe to be the reincarnation of Christ. Along with a rare interview with the messiah himself, Simon meets some of the daughters of his followers being educated to become future brides of worthy men. After encounters with Tuvan throat singers and Cossack street patrols, Simon visits Dagestan, a largely Muslim region that has been scarred by jihadist violence. He meets security forces who use highly trained dogs to tackle the terrorist threat, and villagers attempting to keep their ancient tightrope-walking traditions alive.

Part 3.
The third leg takes him from the illegally annexed peninsula of Crimea to the historic Baltic city of St Petersburg. Crimea is part of neighbouring Ukraine but was annexed by Russia in 2014. President Putin's government is investing heavily in the illegally occupied territory - building a huge bridge linking Crimea to Russia. Simon meets the eccentric and fearless owner of a safari park who likes to get up close and personal with his pride of lions. The owner is struggling to get water to his park after a canal that supplied much of Crimea's water was shut off by the Ukraine. And it is not just the lions that are affected - the diminishing water supplies are now beginning to threaten a humanitarian crisis.


General
Unique ID : 183384173672238061158664505666465058176 (0x89F681D3F0CCB0A4B2A726F352BA4D80)
Complete name : BBC.Russia.with.Simon.Reeve.1of3.720p.mkv
Format : Matroska
Format version : Version 4 / Version 2
File size : 1.29 GiB
Duration : 59 min 9 s
Overall bit rate : 3 111 kb/s

Video
ID : 1
Format : AVC
Format/Info : Advanced Video Codec
Format profile : High@L3.1
Format settings, CABAC : Yes
Format settings, ReFrames : 4 frames
Codec ID : V_MPEG4/ISO/AVC
Duration : 59 min 9 s
Bit rate : 2 980 kb/s
Width : 1 280 pixels
Height : 720 pixels
Display aspect ratio : 16:9
Frame rate mode : Constant
Frame rate : 25.000 FPS
Color space : YUV
Chroma subsampling : 4:2:0
Bit depth : 8 bits
Scan type : Progressive
Bits/(Pixel*Frame) : 0.129
Stream size : 1.23 GiB (96%)
Encoding settings : cabac=1 / ref=3 / deblock=1:0:0 / analyse=0x3:0x113 / me=umh / subme=9 / psy=1 / psy_rd=1.00:0.00 / mixed_ref=1 / me_range=24 / chroma_me=1 / trellis=1 / 8x8dct=1 / cqm=0 / deadzone=21,11 / fast_pskip=0 / chroma_qp_offset=-2 / threads=3 / lookahead_threads=1 / sliced_threads=0 / nr=0 / decimate=1 / interlaced=0 / bluray_compat=0 / constrained_intra=0 / bframes=6 / b_pyramid=2 / b_adapt=2 / b_bias=0 / direct=1 / weightb=1 / open_gop=0 / weightp=2 / keyint=250 / keyint_min=25 / scenecut=40 / intra_refresh=0 / rc_lookahead=40 / rc=crf / mbtree=1 / crf=19.0 / qcomp=0.60 / qpmin=0 / qpmax=69 / qpstep=4 / ip_ratio=1.40 / aq=1:1.00
Language : English
Default : Yes
Forced : No
Color range : Limited
Color primaries : BT.709
Transfer characteristics : BT.709
Matrix coefficients : BT.709

Audio
ID : 2
Format : AAC
Format/Info : Advanced Audio Codec
Format profile : LC
Codec ID : A_AAC
Duration : 59 min 9 s
Bit rate : 129 kb/s
Channel(s) : 2 channels
Channel positions : Front: L R
Sampling rate : 48.0 kHz
Frame rate : 46.875 FPS (1024 spf)
Compression mode : Lossy
Delay relative to video : 9 ms
Stream size : 54.5 MiB (4%)
Language : English
Default : Yes
Forced : No

Text
ID : 3
Format : UTF-8
Codec ID : S_TEXT/UTF8
Codec ID/Info : UTF-8 Plain Text
Duration : 58 min 36 s
Bit rate : 66 b/s
Count of elements : 748
Stream size : 28.8 KiB (0%)
Language : English
Default : No
Forced : No


Screenshots:

BBC - Russia with Simon Reeve (2017)

BBC - Russia with Simon Reeve (2017)

BBC - Russia with Simon Reeve (2017)

BBC - Russia with Simon Reeve (2017)