Tags
Language
Tags

BBC Our World - Russia's Ghost Towns (2018)

Posted By: notbanned
720p (HD) / HDTV
BBC Our World - Russia's Ghost Towns (2018)

BBC Our World - Russia's Ghost Towns (2018)
HDTV | 1280x656 | .MKV/AVC @ 2044 Kbps | 23 min 10 s | 350 MiB
Audio: English AAC 64 kbps, 2 channels | Subs: English
Genre: Documentary

Hundreds of industrial towns across Russia face extinction. Once the pride of the Soviet Union, many have now been abandoned and millions have lost jobs and homes after the collapse of their local industry. The government now has a plan to save at least some of Russia's dying towns.

General
Unique ID : 1656209379959789731302803470044070932 (0x13EF96D4A973582D90CB944C9678414)
Complete name : BBC.Our.World.2018.Russias.Ghost.Towns.720p.mkv
Format : Matroska
Format version : Version 4 / Version 2
File size : 350 MiB
Duration : 23 min 10 s
Overall bit rate : 2 110 kb/s

Video
ID : 1
Format : AVC
Format/Info : Advanced Video Codec
Format profile : High@L3.1
Format settings, CABAC : Yes
Format settings, ReFrames : 4 frames
Codec ID : V_MPEG4/ISO/AVC
Duration : 23 min 10 s
Bit rate : 2 044 kb/s
Width : 1 280 pixels
Height : 656 pixels
Display aspect ratio : 1.951
Frame rate mode : Constant
Frame rate : 25.000 FPS
Color space : YUV
Chroma subsampling : 4:2:0
Bit depth : 8 bits
Scan type : Progressive
Bits/(Pixel*Frame) : 0.097
Stream size : 339 MiB (97%)
Encoding settings : cabac=1 / ref=3 / deblock=1:0:0 / analyse=0x3:0x113 / me=umh / subme=9 / psy=1 / psy_rd=1.00:0.00 / mixed_ref=1 / me_range=24 / chroma_me=1 / trellis=1 / 8x8dct=1 / cqm=0 / deadzone=21,11 / fast_pskip=0 / chroma_qp_offset=-2 / threads=3 / lookahead_threads=1 / sliced_threads=0 / nr=0 / decimate=1 / interlaced=0 / bluray_compat=0 / constrained_intra=0 / bframes=6 / b_pyramid=2 / b_adapt=2 / b_bias=0 / direct=1 / weightb=1 / open_gop=0 / weightp=2 / keyint=250 / keyint_min=25 / scenecut=40 / intra_refresh=0 / rc_lookahead=40 / rc=crf / mbtree=1 / crf=20.0 / qcomp=0.60 / qpmin=0 / qpmax=69 / qpstep=4 / ip_ratio=1.40 / aq=1:1.00
Language : English
Default : Yes
Forced : No
Color range : Limited
Color primaries : BT.709
Transfer characteristics : BT.709
Matrix coefficients : BT.709

Audio
ID : 2
Format : AAC
Format/Info : Advanced Audio Codec
Format profile : HE-AAC / LC
Codec ID : A_AAC
Duration : 23 min 10 s
Bit rate : 64.0 kb/s
Channel(s) : 2 channels
Channel positions : Front: L R
Sampling rate : 48.0 kHz / 24.0 kHz
Frame rate : 23.438 FPS (1024 spf)
Compression mode : Lossy
Delay relative to video : 43 ms
Stream size : 10.6 MiB (3%)
Language : English
Default : Yes
Forced : No

Text
ID : 3
Format : UTF-8
Codec ID : S_TEXT/UTF8
Codec ID/Info : UTF-8 Plain Text
Duration : 22 min 17 s
Bit rate : 367 b/s
Count of elements : 1241
Stream size : 60.0 KiB (0%)
Language : English
Default : No
Forced : No


Screenshots:

BBC Our World - Russia's Ghost Towns (2018)

BBC Our World - Russia's Ghost Towns (2018)

BBC Our World - Russia's Ghost Towns (2018)

BBC Our World - Russia's Ghost Towns (2018)