Tags
Language
Tags

A Few Less Men (2017)

Posted By: Tavaz
1080p (FullHD) / BDRip IMDb
A Few Less Men (2017)

A Few Less Men (2017)
BDRip | MKV | 1920x804 | English | H264 @ 14185 kbps | AC-3 @ 640 kbps | 1 h 31 min | 9.53 GiB
Subtitles: English
Genre: Comedy

Travel plans for three men in ill-fitting wedding tuxedos goes horribly wrong.

2649467c4cc84c3382267d9a78ebec57.mkv (9.5 GB)



General
Complete name : ./2649467c4cc84c3382267d9a78ebec57.mkv
Format : Matroska
Format version : Version 4 / Version 2
File size : 9.53 GiB
Duration : 1 h 31 min
Overall bit rate : 14.8 Mb/s
Encoded date : UTC 2018-05-07 06:44:32
Writing application : mkvmerge v23.0.0 ('The Bride Said No') 64-bit
Writing library : libebml v1.3.6 + libmatroska v1.4.9

Video
ID : 1
Format : AVC
Format/Info : Advanced Video Codec
Format profile : High@L4.1
Format settings : CABAC / 5 Ref Frames
Format settings, CABAC : Yes
Format settings, RefFrames : 5 frames
Codec ID : V_MPEG4/ISO/AVC
Duration : 1 h 31 min
Bit rate : 14.2 Mb/s
Width : 1 920 pixels
Height : 804 pixels
Display aspect ratio : 2.40:1
Frame rate mode : Constant
Frame rate : 23.976 (24000/1001) FPS
Color space : YUV
Chroma subsampling : 4:2:0
Bit depth : 8 bits
Scan type : Progressive
Bits/(Pixel*Frame) : 0.383
Stream size : 9.11 GiB (96%)
Writing library : x264 core 144 r2525 40bb568
Encoding settings : cabac=1 / ref=5 / deblock=1:-3:-3 / analyse=0x3:0x133 / me=umh / subme=10 / psy=1 / psy_rd=1.00:0.00 / mixed_ref=1 / me_range=32 / chroma_me=1 / trellis=2 / 8x8dct=1 / cqm=0 / deadzone=21,11 / fast_pskip=0 / chroma_qp_offset=-2 / threads=12 / lookahead_threads=2 / sliced_threads=0 / nr=0 / decimate=0 / interlaced=0 / bluray_compat=0 / constrained_intra=0 / bframes=8 / b_pyramid=2 / b_adapt=2 / b_bias=0 / direct=3 / weightb=1 / open_gop=0 / weightp=2 / keyint=250 / keyint_min=23 / scenecut=40 / intra_refresh=0 / rc=crf / mbtree=0 / crf=16.0 / qcomp=0.60 / qpmin=0 / qpmax=69 / qpstep=4 / ip_ratio=1.40 / pb_ratio=1.30 / aq=3:0.85
Language : English
Default : Yes
Forced : No

Audio
ID : 2
Format : AC-3
Format/Info : Audio Coding 3
Format settings, Endianness : Big
Codec ID : A_AC3
Duration : 1 h 31 min
Bit rate mode : Constant
Bit rate : 640 kb/s
Channel(s) : 6 channels
Channel positions : Front: L C R, Side: L R, LFE
Sampling rate : 48.0 kHz
Frame rate : 31.250 FPS (1536 SPF)
Bit depth : 16 bits
Compression mode : Lossy
Stream size : 421 MiB (4%)
Language : English
Service kind : Complete Main
Default : Yes
Forced : No

Text
ID : 3
Format : UTF-8
Codec ID : S_TEXT/UTF8
Codec ID/Info : UTF-8 Plain Text
Duration : 1 h 27 min
Bit rate : 49 b/s
Count of elements : 789
Stream size : 31.7 KiB (0%)
Language : English
Default : No
Forced : No

Menu
00:00:00.000 : en:00:00:00.000
00:05:16.316 : en:00:05:16.316
00:12:02.180 : en:00:12:02.180
00:18:13.384 : en:00:18:13.384
00:24:16.580 : en:00:24:16.580
00:28:59.905 : en:00:28:59.905
00:34:49.462 : en:00:34:49.462
00:40:37.644 : en:00:40:37.644
00:45:57.505 : en:00:45:57.505
00:50:14.678 : en:00:50:14.678
00:55:28.450 : en:00:55:28.450
00:59:57.761 : en:00:59:57.761
01:06:26.191 : en:01:06:26.191
01:12:09.158 : en:01:12:09.158
01:15:57.261 : en:01:15:57.261
01:23:25.292 : en:01:23:25.292





A Few Less Men (2017)


A Few Less Men (2017)


A Few Less Men (2017)


A Few Less Men (2017)


A Few Less Men (2017)