Tags
Language
Tags

Rupert Everett: Fifty Shades of Gay (2018)

Posted By: notbanned
1080p (FullHD) / HDTV
Rupert Everett: Fifty Shades of Gay (2018)

Rupert Everett: Fifty Shades of Gay (2017)
HDTV | 1920x1080 | .MKV/AVC @ 4449 Kbps | 45 min 43 s | 1.48 GiB
Audio: English MP2 192 kbps, 2 channels | Subs: English
Genre: Documentary

In this documentary, to mark the 50th anniversary of the decriminalisation of homosexuality in the UK, Rupert Everett charts the changes in gay life and culture over the last five decades. Since 1967 much has been achieved in terms of openness and acceptance, but have some of the things that Rupert most wants to celebrate about gay culture – its rebelliousness and outsiderness, for example – faded in the process of assimilation into the mainstream?

General
Unique ID : 206353368984645330899439385772296891657 (0x9B3E36973DFBDE05433A62366089ED09)
Complete name : 50.Shades.Of.Gay.2017.1080p.mkv
Format : Matroska
Format version : Version 4 / Version 2
File size : 1.48 GiB
Duration : 45 min 43 s
Overall bit rate : 4 643 kb/s

Video
ID : 1
Format : AVC
Format/Info : Advanced Video Codec
Format profile : High@L4
Format settings, CABAC : Yes
Format settings, ReFrames : 4 frames
Codec ID : V_MPEG4/ISO/AVC
Duration : 45 min 43 s
Bit rate : 4 449 kb/s
Width : 1 920 pixels
Height : 1 080 pixels
Display aspect ratio : 16:9
Frame rate mode : Variable
Frame rate : 25.165 FPS
Original frame rate : 25.000 FPS
Standard : Component
Color space : YUV
Chroma subsampling : 4:2:0
Bit depth : 8 bits
Scan type : MBAFF
Bits/(Pixel*Frame) : 0.085
Stream size : 1.42 GiB (96%)
Default : Yes
Forced : No
Color range : Limited
Color primaries : BT.709
Transfer characteristics : BT.709
Matrix coefficients : BT.709

Audio
ID : 2
Format : MPEG Audio
Format version : Version 1
Format profile : Layer 2
Codec ID : A_MPEG/L2
Codec ID/Hint : MP2
Duration : 45 min 43 s
Bit rate mode : Constant
Bit rate : 192 kb/s
Channel(s) : 2 channels
Sampling rate : 48.0 kHz
Frame rate : 41.667 FPS (1152 spf)
Compression mode : Lossy
Stream size : 62.8 MiB (4%)
Language : English
Default : Yes
Forced : No

Text
ID : 3
Format : UTF-8
Codec ID : S_TEXT/UTF8
Codec ID/Info : UTF-8 Plain Text
Duration : 45 min 37 s
Bit rate : 115 b/s
Count of elements : 808
Stream size : 38.7 KiB (0%)
Language : English
Default : No
Forced : No


Screenshots:

Rupert Everett: Fifty Shades of Gay (2018)

Rupert Everett: Fifty Shades of Gay (2018)

Rupert Everett: Fifty Shades of Gay (2018)

Rupert Everett: Fifty Shades of Gay (2018)