Maria Holic (2008-2009)

Posted By: Lebedev30
1080p (FullHD) / BluRay Remux IMDb
Maria Holic (2008-2009)

Maria Holic (2008-2009)
BD-Remux | mkv | 1920x1080 | H264@~36 Mbps | 12x ~ 24mn | 12x ~6.5 Gb
日本語 FLAC@683 Kbps | 2 channels | Subtitles: None
Genre: comedy, seinen, super deformed, trap


Description:
* Based on a manga written and illustrated by Endou Minari, serialised in Monthly Comic Alive.

Miyamae Kanako, a high school girl, who is allergic to boys, enrols in an all-girls school, hoping to find a female romantic partner. However, her ideal candidate, Shidou Mariya, turns out to be a mischievous cross-dressing boy, who together with his sarcastic maid Shinouji Matsurika, make life for Kanako really difficult.






01. The Flirtatious Kiss
02. A Sweet Twinge
03. Masochistic Young Buds
04. The Price of Pleasure
05. Forbidden Smell / A Young Girl`s Secret
06. Infirmary of Perversion
07. The Suspicious Black Underwear
08. The Tainted Holy Mother, Part 1
09. The Tainted Holy Mother, Part 2 / The End of a Fantasy
10. A Flat-Chested Error / A Love Letter from Berlin
11. An Offering to God
12. A Swimming Competition Full of Pretty Girls: There Will Be Flying Tops


General
Format : Matroska
Format version : Version 4 / Version 2
File size : 6.19 GiB
Duration : 23 min 36 s
Overall bit rate mode : Variable
Overall bit rate : 37.6 Mb/s
Encoded date : UTC 2015-11-14 14:18:24
Writing application : mkvmerge v8.5.2 ('Crosses') 64bit
Writing library : libebml v1.3.3 + libmatroska v1.4.4

Video
ID : 2
Format : AVC
Format/Info : Advanced Video Codec
Format profile : High@L4.1
Format settings : CABAC / 4 Ref Frames
Format settings, CABAC : Yes
Format settings, RefFrames : 4 frames
Codec ID : V_MPEG4/ISO/AVC
Duration : 23 min 35 s
Bit rate mode : Variable
Bit rate : 36.9 Mb/s
Maximum bit rate : 39.0 Mb/s
Width : 1 920 pixels
Height : 1 080 pixels
Display aspect ratio : 16:9
Frame rate mode : Constant
Frame rate : 29.970 (30000/1001) FPS
Color space : YUV
Chroma subsampling : 4:2:0
Bit depth : 8 bits
Scan type : MBAFF
Scan type, store method : Interleaved fields
Scan order : Top Field First
Bits/(Pixel*Frame) : 0.594
Stream size : 6.08 GiB (98%)
Default : No
Forced : No
Color range : Limited
Color primaries : BT.709
Transfer characteristics : BT.709
Matrix coefficients : BT.709

Audio
ID : 1
Format : FLAC
Format/Info : Free Lossless Audio Codec
Codec ID : A_FLAC
Duration : 23 min 36 s
Bit rate mode : Variable
Bit rate : 683 kb/s
Channel(s) : 2 channels
Channel positions : Front: L R
Sampling rate : 48.0 kHz
Frame rate : 11.719 FPS (4096 SPF)
Bit depth : 16 bits
Stream size : 115 MiB (2%)
Writing library : libFLAC 1.2.1 (UTC 2007-09-17)
Language : Japanese
Default : Yes
Forced : No

Menu
00:00:00.000 : en:00:00:00.000
00:01:33.994 : en:00:01:33.994
00:08:11.791 : en:00:08:11.791
00:12:33.653 : en:00:12:33.653
00:13:16.963 : en:00:13:16.963
00:17:47.233 : en:00:17:47.233
00:20:04.970 : en:00:20:04.970
00:21:34.994 : en:00:21:34.994
00:23:19.965 : en:00:23:19.965


Screenshots

Maria Holic (2008-2009)

Maria Holic (2008-2009)

Maria Holic (2008-2009)


My publications | Rss Channel