Featured TV Shows


Van Helsing S03E03

Posted By: Tavaz
1080p (FullHD) / BDRip IMDb
Van Helsing S03E03

Van Helsing S03E03
BluRay Remux | MKV | 1920x1080 | English | H264 @ 25720 kbps | DTS | 42 min 21 s | 8.58 GiB
Subtitles: English
Genre: Mystery


Vanessa Helsing, the daughter of famous vampire hunter and Dracula nemesis Abraham Van Helsing is resurrected five years in the future to find out that vampires have taken over the world and that she possesses unique power over them. She is humanity’s last hope to lead an offensive to take back what has been lost.

Van.Helsing.S03E03.I.Awake.1080p.BluRay.REMUX.AVC.DTS-HD.MA.5.1-EPSiLON.part1.rar (4.5 GB)
Van.Helsing.S03E03.I.Awake.1080p.BluRay.REMUX.AVC.DTS-HD.MA.5.1-EPSiLON.part2.rar (4.2 GB)



General
Unique ID : 47407112410614259605936238369736669368 (0x23AA4719C32E24C9E377B066C672B8B8)
Complete name : ./9e1c5479f26eaf0f20dc407385fa0e6a.mkv
Format : Matroska
Format version : Version 4 / Version 2
File size : 8.58 GiB
Duration : 42 min 21 s
Overall bit rate mode : Variable
Overall bit rate : 29.0 Mb/s
Movie name : Van Helsing - S03E03 - I Awake
Track name/Position : 3
Track name/Total : 13
Encoded date : UTC 2020-01-23 02:49:20
Writing application : mkvmerge v37.0.0 ('Leave It') 64-bit
Writing library : libebml v1.3.9 + libmatroska v1.5.2
IMDB : tt8230954
TMDB : tv/65820
TVDB : 308772

Video
ID : 1
Format : AVC
Format/Info : Advanced Video Codec
Format profile : High@L4.1
Format settings : CABAC / 4 Ref Frames
Format settings, CABAC : Yes
Format settings, RefFrames : 4 frames
Codec ID : V_MPEG4/ISO/AVC
Duration : 42 min 21 s
Bit rate mode : Variable
Bit rate : 25.7 Mb/s
Maximum bit rate : 38.0 Mb/s
Width : 1 920 pixels
Height : 1 080 pixels
Display aspect ratio : 16:9
Frame rate mode : Constant
Frame rate : 23.976 (24000/1001) FPS
Color space : YUV
Chroma subsampling : 4:2:0
Bit depth : 8 bits
Scan type : Progressive
Bits/(Pixel*Frame) : 0.517
Stream size : 7.61 GiB (89%)
Title : MPEG-4 AVC Video / 25995 kbps / 1080p / 23.976 fps / 16:9 / High Profile 4.1
Language : English
Default : Yes
Forced : No

Audio
ID : 2
Format : DTS
Format/Info : Digital Theater Systems
Format profile : MA / Core
Mode : 16
Format settings, Endianness : Big
Codec ID : A_DTS
Duration : 42 min 21 s
Bit rate mode : Variable / Constant
Bit rate : 3 233 kb/s / 768 kb/s
Channel(s) : 6 channels
Channel positions : Front: L C R, Side: L R, LFE
Sampling rate : 48.0 kHz
Frame rate : 93.750 FPS (512 SPF)
Bit depth : 24 bits
Compression mode : Lossless / Lossy
Stream size : 980 MiB (11%)
Title : DTS-HD Master Audio / 5.1 / 48 kHz / 3233 kbps / 24-bit
Language : English
Default : Yes
Forced : No

Text
ID : 3
Format : PGS
Codec ID : S_HDMV/PGS
Codec ID/Info : Picture based subtitle format used on BDs/HD-DVDs
Duration : 41 min 37 s
Bit rate : 44.5 kb/s
Count of elements : 1112
Stream size : 13.3 MiB (0%)
Title : SDH
Language : English
Default : No
Forced : No

Menu
00:00:00.000 : en:Chapter 1
00:11:56.716 : en:Chapter 2
00:21:32.374 : en:Chapter 3
00:30:38.587 : en:Chapter 4





Van Helsing S03E03


Van Helsing S03E03


Van Helsing S03E03


Van Helsing S03E03


Van Helsing S03E03

All episodes