Featured TV Shows


The Walking Dead S10E08

Posted By: Tavaz
The Walking Dead S10E08

The Walking Dead S10E08
MKV | 1920x1080 | German / English | H264 @ 4771 kbps | AC-3 @ 256 kbps | 50 min 15 s | 1.86 GiB
Genre: Drama


The Walking Dead spielt bislang in der Metropolregion von Atlanta, im Südosten der Vereinigten Staaten, und erzählt vom Kampf einer kleinen Gruppe Überlebender nach einer weltweiten Zombie-Apokalypse. Unter Führung des Sheriffs Rick Grimes ist die Gruppe auf der Suche nach einer dauerhaften und vor allem sicheren Bleibe. Dabei stellen die fast überall präsenten Untoten eine permanent vorhandene Bedrohung dar, die jederzeit ohne Vorwarnung zuschlagen kann. Im Laufe der Zeit wird die Gruppe daher zwangsläufig immer kleiner, da manche Mitglieder den Zombieszum Opfer fallen, andere die Gruppe verlassen oder sich für den Tod entscheiden.

The.Walking.Dead.S10.E08.Nichts.ist.wie.zuvor.German.HD.1080.mkv (1.9 GB)



General
Unique ID : 179988829376724476922135030439777248444 (0x8768966DF2DD55CEF00AC4445871A4BC)
Complete name : ./The.Walking.Dead.S10.E08.Nichts.ist.wie.zuvor.German.HD.1080.mkv
Format : Matroska
Format version : Version 4 / Version 2
File size : 1.86 GiB
Duration : 50 min 15 s
Overall bit rate mode : Constant
Overall bit rate : 5 289 kb/s
Writing application : Lavf58.12.100
Writing library : Lavf58.12.100
ErrorDetectionType : Per level 1

Video
ID : 1
Format : AVC
Format/Info : Advanced Video Codec
Format profile : Main@L4
Format settings : CABAC / 3 Ref Frames
Format settings, CABAC : Yes
Format settings, RefFrames : 3 frames
Format settings, GOP : M=1, N=25
Codec ID : V_MPEG4/ISO/AVC
Duration : 50 min 15 s
Bit rate mode : Constant
Bit rate : 4 772 kb/s
Width : 1 920 pixels
Height : 1 080 pixels
Display aspect ratio : 16:9
Frame rate mode : Constant
Frame rate : 25.000 FPS
Color space : YUV
Chroma subsampling : 4:2:0
Bit depth : 8 bits
Scan type : Progressive
Bits/(Pixel*Frame) : 0.092
Stream size : 1.64 GiB (88%)
Default : Yes
Forced : No

Audio #1
ID : 2
Format : AC-3
Format/Info : Audio Coding 3
Format settings, Endianness : Big
Codec ID : A_AC3
Duration : 50 min 15 s
Bit rate mode : Constant
Bit rate : 256 kb/s
Channel(s) : 2 channels
Channel positions : Front: L R
Sampling rate : 48.0 kHz
Frame rate : 31.250 FPS (1536 SPF)
Bit depth : 16 bits
Compression mode : Lossy
Delay relative to video : -5 ms
Stream size : 92.0 MiB (5%)
Language : German
Service kind : Complete Main
Default : Yes
Forced : No

Audio #2
ID : 3
Format : AC-3
Format/Info : Audio Coding 3
Format settings, Endianness : Big
Codec ID : A_AC3
Duration : 50 min 15 s
Bit rate mode : Constant
Bit rate : 256 kb/s
Channel(s) : 2 channels
Channel positions : Front: L R
Sampling rate : 48.0 kHz
Frame rate : 31.250 FPS (1536 SPF)
Bit depth : 16 bits
Compression mode : Lossy
Delay relative to video : -5 ms
Stream size : 92.0 MiB (5%)
Language : English
Service kind : Complete Main
Default : Yes
Forced : No





The Walking Dead S10E08


The Walking Dead S10E08


The Walking Dead S10E08


The Walking Dead S10E08


The Walking Dead S10E08

All episodes