Index
# A B C D E F G H I J K L M N O P Q R S T U V W X Y Z
Tags
Language
Tags
June 2024
Su Mo Tu We Th Fr Sa
26 27 28 29 30 31 1
2 3 4 5 6 7 8
9 10 11 12 13 14 15
16 17 18 19 20 21 22
23 24 25 26 27 28 29
30 1 2 3 4 5 6

Featured TV Shows


The Last O.G. S04E07

Posted By: Tavaz
720p (HD) / WEBRip IMDb
The Last O.G. S04E07

The Last O.G. S04E07
WEBRip | MKV | 1280x720 | English | H264 @ 5126 kbps | E-AC-3 @ 640 kbps | 20 min 11 s | 833 MiB
Subtitles: English
Genre: Comedy


An ex-felon is shocked to see just how much the world has changed when he is released from prison for good behavior after a 15-year stint and returns to his newly gentrified Brooklyn neighborhood.

bff98fc4cd18432692007d1ae58e1c97.mkv (833.0 MB)



General
Unique ID : 287507688055830883872739040213184477322 (0xD84BF770EC6EFD2A17904B696A16F88A)
Complete name : ./bff98fc4cd18432692007d1ae58e1c97.mkv
Format : Matroska
Format version : Version 4 / Version 2
File size : 833 MiB
Duration : 20 min 11 s
Overall bit rate : 5 769 kb/s
Movie name : The Last O.G. - S04E07 - Smush
Encoded date : UTC 2021-12-01 05:06:03
Writing application : mkvmerge v63.0.0 ('Everything') 64-bit
Writing library : libebml v1.4.2 + libmatroska v1.6.4
IMDB : tt5363912
TMDB : tv/77485
TVDB : 332439

Video
ID : 1
Format : AVC
Format/Info : Advanced Video Codec
Format profile : High@L3.1
Format settings : CABAC / 4 Ref Frames
Format settings, CABAC : Yes
Format settings, RefFrames : 4 frames
Codec ID : V_MPEG4/ISO/AVC
Duration : 20 min 11 s
Bit rate mode : Constant
Bit rate : 5 126 kb/s
Nominal bit rate : 6 000 kb/s
Width : 1 280 pixels
Height : 720 pixels
Display aspect ratio : 16:9
Frame rate mode : Constant
Frame rate : 23.976 (24000/1001) FPS
Color space : YUV
Chroma subsampling : 4:2:0
Bit depth : 8 bits
Scan type : Progressive
Bits/(Pixel*Frame) : 0.232
Stream size : 740 MiB (89%)
Default : Yes
Forced : No
Color range : Limited
Color primaries : BT.709
Transfer characteristics : BT.709
Matrix coefficients : BT.709

Audio
ID : 2
Format : E-AC-3
Format/Info : Enhanced Audio Coding 3
Format settings, Endianness : Big
Codec ID : A_EAC3
Duration : 20 min 11 s
Bit rate mode : Constant
Bit rate : 640 kb/s
Channel(s) : 6 channels
Channel positions : Front: L C R, Side: L R, LFE
Sampling rate : 48.0 kHz
Frame rate : 187.500 FPS (256 SPF)
Compression mode : Lossy
Stream size : 92.4 MiB (11%)
Language : English
Service kind : Complete Main
Default : Yes
Forced : No

Text #1
ID : 3
Format : UTF-8
Codec ID : S_TEXT/UTF8
Codec ID/Info : UTF-8 Plain Text
Duration : 19 min 35 s
Bit rate : 93 b/s
Count of elements : 409
Stream size : 13.5 KiB (0%)
Language : English
Default : No
Forced : No

Text #2
ID : 4
Format : UTF-8
Codec ID : S_TEXT/UTF8
Codec ID/Info : UTF-8 Plain Text
Duration : 20 min 4 s
Bit rate : 102 b/s
Count of elements : 477
Stream size : 15.1 KiB (0%)
Title : SDH
Language : English
Default : No
Forced : No

Menu
00:20:06.000 : en:Credits





The Last O.G. S04E07


The Last O.G. S04E07


The Last O.G. S04E07


The Last O.G. S04E07


The Last O.G. S04E07

All episodes