Featured TV Shows


Swamp Thing S01E06

Posted By: Tavaz
1080p (FullHD) / WEBRip IMDb
Swamp Thing S01E06

Swamp Thing S01E06
WEBRip | MKV | 1920x1080 | Français / English | H264 @ 5069 kbps | E-AC-3 @ 640 kbps | 42 min 20 s | 1.88 GiB
Subtitles: Français, English
Genre: Drama, Mystery


CDC researcher Abby Arcane investigates what seems to be a deadly swamp-born virus in a small town in Louisiana but she soon discovers that the swamp holds mystical and terrifying secrets. When unexplainable and chilling horrors emerge from the murky marsh, no one is safe.

e5a7f371ce3947de88aa2c2c7edc99f1.mkv (1.9 GB)



General
Unique ID : 216593981848865099433815694579865355674 (0xA2F27BC96333973367962A48071A059A)
Complete name : ./e5a7f371ce3947de88aa2c2c7edc99f1.mkv
Format : Matroska
Format version : Version 4 / Version 2
File size : 1.88 GiB
Duration : 42 min 20 s
Overall bit rate : 6 352 kb/s
Encoded date : UTC 2020-05-23 03:34:13
Writing application : mkvmerge v46.0.0 ('No Deeper Escape') 64-bit
Writing library : libebml v1.3.10 + libmatroska v1.5.2

Video
ID : 1
Format : AVC
Format/Info : Advanced Video Codec
Format profile : High@L4
Format settings : CABAC / 4 Ref Frames
Format settings, CABAC : Yes
Format settings, RefFrames : 4 frames
Codec ID : V_MPEG4/ISO/AVC
Duration : 42 min 20 s
Bit rate mode : Constant
Bit rate : 5 069 kb/s
Nominal bit rate : 10 000 kb/s
Width : 1 920 pixels
Height : 1 080 pixels
Display aspect ratio : 16:9
Frame rate mode : Constant
Frame rate : 23.976 (24000/1001) FPS
Color space : YUV
Chroma subsampling : 4:2:0
Bit depth : 8 bits
Scan type : Progressive
Bits/(Pixel*Frame) : 0.102
Stream size : 1.50 GiB (80%)
Default : Yes
Forced : No
Color range : Limited
Color primaries : BT.709
Transfer characteristics : BT.709
Matrix coefficients : BT.709

Audio #1
ID : 2
Format : E-AC-3
Format/Info : Enhanced Audio Coding 3
Format settings, Endianness : Big
Codec ID : A_EAC3
Duration : 42 min 20 s
Bit rate mode : Constant
Bit rate : 640 kb/s
Channel(s) : 6 channels
Channel positions : Front: L C R, Side: L R, LFE
Sampling rate : 48.0 kHz
Frame rate : 187.500 FPS (256 SPF)
Compression mode : Lossy
Stream size : 194 MiB (10%)
Title : French
Language : French
Service kind : Complete Main
Default : Yes
Forced : No

Audio #2
ID : 3
Format : E-AC-3
Format/Info : Enhanced Audio Coding 3
Format settings, Endianness : Big
Codec ID : A_EAC3
Duration : 42 min 20 s
Bit rate mode : Constant
Bit rate : 640 kb/s
Channel(s) : 6 channels
Channel positions : Front: L C R, Side: L R, LFE
Sampling rate : 48.0 kHz
Frame rate : 187.500 FPS (256 SPF)
Compression mode : Lossy
Stream size : 194 MiB (10%)
Title : English
Language : English
Service kind : Complete Main
Default : No
Forced : No

Text #1
ID : 4
Format : UTF-8
Codec ID : S_TEXT/UTF8
Codec ID/Info : UTF-8 Plain Text
Duration : 41 min 55 s
Bit rate : 54 b/s
Count of elements : 586
Stream size : 16.6 KiB (0%)
Title : French
Language : French
Default : No
Forced : No

Text #2
ID : 5
Format : UTF-8
Codec ID : S_TEXT/UTF8
Codec ID/Info : UTF-8 Plain Text
Duration : 41 min 17 s
Bit rate : 69 b/s
Count of elements : 742
Stream size : 21.0 KiB (0%)
Title : English (SDH)
Language : English
Default : No
Forced : No

Menu
00:00:00.000 : en:1. Studio Logo
00:00:19.000 : en:2. Previously On
00:01:21.000 : en:Scene 3
00:04:32.000 : en:4. Opening Credits
00:05:33.000 : en:Scene 5
00:12:20.000 : en:Scene 6
00:16:40.000 : en:Scene 7
00:20:36.000 : en:Scene 8
00:22:18.000 : en:Scene 9
00:25:10.000 : en:Scene 10
00:29:28.000 : en:Scene 11
00:32:14.000 : en:Scene 12
00:36:07.000 : en:Scene 13
00:37:58.000 : en:Scene 14
00:39:31.000 : en:Scene 15
00:41:34.000 : en:16. End Credits





Swamp Thing S01E06


Swamp Thing S01E06


Swamp Thing S01E06


Swamp Thing S01E06


Swamp Thing S01E06

All episodes