Featured TV Shows


Reef Break S01E03

Posted By: Tavaz
1080p (FullHD) / WEBRip IMDb
Reef Break S01E03

Reef Break S01E03
WEBRip | MKV | 1920x1080 | English | H264 @ 8900 kbps | E-AC-3 @ 640 kbps | 41 min 43 s | 2.78 GiB
Subtitles: English
Genre: Drama


Cat Chambers is a thief-turned-fixer for the governor of a stunning and seductive Pacific Island paradise. Impulsive, reckless, and irresistible, Cat's less-than-perfect past gives her an instinctive gift for understanding crime and criminals as she becomes enmeshed in fast-paced, high-octane adventures and island intrigue.

Reef.Break.S01E03.Buried.Things.1080p.AMZN.WEB-DL.DDP5.1.H.264-NTb.mkv (2.8 GB)



General
Unique ID : 209106939963128503944770072629964816704 (0x9D50881F282DD1714B001395BD6DC140)
Complete name : ./Reef.Break.S01E03.Buried.Things.1080p.AMZN.WEB-DL.DDP5.1.H.264-NTb.mkv
Format : Matroska
Format version : Version 4 / Version 2
File size : 2.78 GiB
Duration : 41 min 43 s
Overall bit rate : 9 543 kb/s
Encoded date : UTC 2019-07-11 23:38:10
Writing application : mkvmerge v34.0.0 ('Sight and Seen') 64-bit
Writing library : libebml v1.3.7 + libmatroska v1.5.0

Video
ID : 1
Format : AVC
Format/Info : Advanced Video Codec
Format profile : High@L4
Format settings : CABAC / 4 Ref Frames
Format settings, CABAC : Yes
Format settings, RefFrames : 4 frames
Codec ID : V_MPEG4/ISO/AVC
Duration : 41 min 43 s
Bit rate mode : Constant
Bit rate : 8 901 kb/s
Nominal bit rate : 10 000 kb/s
Width : 1 920 pixels
Height : 1 080 pixels
Display aspect ratio : 16:9
Frame rate mode : Constant
Frame rate : 23.976 (24000/1001) FPS
Color space : YUV
Chroma subsampling : 4:2:0
Bit depth : 8 bits
Scan type : Progressive
Bits/(Pixel*Frame) : 0.179
Stream size : 2.59 GiB (93%)
Default : Yes
Forced : No
Color range : Limited
Color primaries : BT.709
Transfer characteristics : BT.709
Matrix coefficients : BT.709

Audio
ID : 2
Format : E-AC-3
Format/Info : Enhanced Audio Coding 3
Format settings, Endianness : Big
Codec ID : A_EAC3
Duration : 41 min 43 s
Bit rate mode : Constant
Bit rate : 640 kb/s
Channel(s) : 6 channels
Channel positions : Front: L C R, Side: L R, LFE
Sampling rate : 48.0 kHz
Frame rate : 187.500 FPS (256 SPF)
Compression mode : Lossy
Stream size : 191 MiB (7%)
Language : English
Service kind : Complete Main
Default : Yes
Forced : No

Text
ID : 3
Format : UTF-8
Codec ID : S_TEXT/UTF8
Codec ID/Info : UTF-8 Plain Text
Duration : 41 min 30 s
Bit rate : 87 b/s
Count of elements : 959
Stream size : 26.5 KiB (0%)
Title : SDH
Language : English
Default : No
Forced : No





Reef Break S01E03


Reef Break S01E03


Reef Break S01E03


Reef Break S01E03


Reef Break S01E03

All episodes