Featured TV Shows


P-Valley S01E04

Posted By: Tavaz
720p (HD) / WEBRip IMDb
P-Valley S01E04

P-Valley S01E04
WEBRip | MKV | 1280x720 | English | H264 @ 4000 kbps | E-AC-3 @ 640 kbps | 51 min 9 s | 1.61 GiB
Subtitles: English
Genre: Drama


Down deep in the Mississippi Delta, Trap music meets film noir in this kaleidoscopic story of a little-strip-club-that-could and the big characters who come through its doors—the hopeful, the lost, the broken, the ballers, the beautiful, and the damned.

43fbe6c504184f55bca5522d35213d80.mkv (1.6 GB)



General
Unique ID : 297440140729807367531250139471330562561 (0xDFC4E32AA494D079C15B0F36A7C25201)
Complete name : ./43fbe6c504184f55bca5522d35213d80.mkv
Format : Matroska
Format version : Version 4 / Version 2
File size : 1.61 GiB
Duration : 51 min 9 s
Overall bit rate : 4 514 kb/s
Encoded date : UTC 2020-08-01 22:08:23
Writing application : mkvmerge v48.0.0 ('Fortress Around Your Heart') 64-bit
Writing library : libebml v1.4.0 + libmatroska v1.6.0

Video
ID : 1
Format : AVC
Format/Info : Advanced Video Codec
Format profile : High@L3.1
Format settings : CABAC / 4 Ref Frames
Format settings, CABAC : Yes
Format settings, RefFrames : 4 frames
Codec ID : V_MPEG4/ISO/AVC
Duration : 51 min 9 s
Bit rate mode : Constant
Bit rate : 4 000 kb/s
Width : 1 280 pixels
Height : 720 pixels
Display aspect ratio : 16:9
Frame rate mode : Constant
Frame rate : 23.976 (24000/1001) FPS
Color space : YUV
Chroma subsampling : 4:2:0
Bit depth : 8 bits
Scan type : Progressive
Bits/(Pixel*Frame) : 0.181
Stream size : 1.38 GiB (86%)
Default : Yes
Forced : No
Color range : Limited
Color primaries : BT.709
Transfer characteristics : BT.709
Matrix coefficients : BT.709

Audio
ID : 2
Format : E-AC-3
Format/Info : Enhanced Audio Coding 3
Format settings, Endianness : Big
Codec ID : A_EAC3
Duration : 51 min 9 s
Bit rate mode : Constant
Bit rate : 640 kb/s
Channel(s) : 6 channels
Channel positions : Front: L C R, Side: L R, LFE
Sampling rate : 48.0 kHz
Frame rate : 187.500 FPS (256 SPF)
Compression mode : Lossy
Stream size : 234 MiB (14%)
Title : English
Language : English
Service kind : Complete Main
Default : Yes
Forced : No

Text #1
ID : 3
Format : UTF-8
Codec ID : S_TEXT/UTF8
Codec ID/Info : UTF-8 Plain Text
Duration : 49 min 53 s
Bit rate : 63 b/s
Count of elements : 681
Stream size : 23.1 KiB (0%)
Title : English
Language : English
Default : No
Forced : No

Text #2
ID : 4
Format : UTF-8
Codec ID : S_TEXT/UTF8
Codec ID/Info : UTF-8 Plain Text
Duration : 50 min 20 s
Bit rate : 99 b/s
Count of elements : 1165
Stream size : 36.8 KiB (0%)
Title : English (SDH)
Language : English
Default : No
Forced : No





P-Valley S01E04


P-Valley S01E04


P-Valley S01E04


P-Valley S01E04


P-Valley S01E04

All episodes