Index
# A B C D E F G H I J K L M N O P Q R S T U V W Y Z
Tags
Language
Tags

Featured TV Shows


Orange Is the New Black S03E13

Posted By: Tavaz
Orange Is the New Black S03E13

Orange Is the New Black S03E13
MKV | 1920x1080 | English | H264 @ 4937 kbps | AAC @ 212 kbps | 1 h 29 min | 3.22 GiB
Subtitles: English
Genre: Comedy, Drama


A crime she committed in her youthful past sends Piper Chapman to a women's prison, where she trades her comfortable New York life for one of unexpected camaraderie and conflict in an eccentric group of fellow inmates.

8410fda46d02bdac9ce3de00d8bab4bd.mkv (3.2 GB)



General
Unique ID : 315256786448110567600153283162699975100 (0xED2C3F9EF3CF2215FCA35D238387C9BC)
Complete name : ./8410fda46d02bdac9ce3de00d8bab4bd.mkv
Format : Matroska
Format version : Version 4 / Version 2
File size : 3.22 GiB
Duration : 1 h 29 min
Overall bit rate : 5 152 kb/s
Movie name : movieddl.me_Orange.Is.The.New.Black.S03E13.1080p.BRRip.x264-HiQVE
Encoded date : UTC 2021-02-17 20:07:42
Writing application : mkvmerge v41.0.0 ('Smarra') 64-bit
Writing library : libebml v1.3.9 + libmatroska v1.5.2 / Lavf58.29.100

Video
ID : 1
Format : AVC
Format/Info : Advanced Video Codec
Format profile : High@L4
Format settings : CABAC / 4 Ref Frames
Format settings, CABAC : Yes
Format settings, RefFrames : 4 frames
Codec ID : V_MPEG4/ISO/AVC
Duration : 1 h 29 min
Bit rate : 4 937 kb/s
Width : 1 920 pixels
Height : 1 080 pixels
Display aspect ratio : 16:9
Frame rate mode : Constant
Frame rate : 23.976 (24000/1001) FPS
Color space : YUV
Chroma subsampling : 4:2:0
Bit depth : 8 bits
Scan type : Progressive
Bits/(Pixel*Frame) : 0.099
Stream size : 3.08 GiB (96%)
Writing library : Lavc58.54.100 libx264
Language : English
Default : Yes
Forced : No

Audio
ID : 2
Format : AAC
Format/Info : Advanced Audio Codec
Format profile : LC
Codec ID : A_AAC-2
Duration : 1 h 29 min
Bit rate : 213 kb/s
Channel(s) : 6 channels
Channel positions : Front: L C R, Side: L R, LFE
Sampling rate : 48.0 kHz
Frame rate : 46.875 FPS (1024 SPF)
Compression mode : Lossy
Delay relative to video : 9 ms
Stream size : 136 MiB (4%)
Language : English
Default : Yes
Forced : No

Text
ID : 3
Format : UTF-8
Codec ID : S_TEXT/UTF8
Codec ID/Info : UTF-8 Plain Text
Duration : 1 h 23 min
Bit rate : 74 b/s
Count of elements : 1424
Stream size : 45.9 KiB (0%)
Title : English
Language : English
Default : Yes
Forced : Yes

Menu
00:00:00.000 : en:00:00:00.000
00:01:14.491 : en:00:01:14.491
00:10:27.544 : en:00:10:27.544
00:20:34.358 : en:00:20:34.358
00:29:45.325 : en:00:29:45.325
00:37:57.108 : en:00:37:57.108
00:48:29.115 : en:00:48:29.115
00:59:16.636 : en:00:59:16.636
01:10:23.010 : en:01:10:23.010
01:19:35.980 : en:01:19:35.980
01:28:10.744 : en:01:28:10.744





Orange Is the New Black S03E13


Orange Is the New Black S03E13


Orange Is the New Black S03E13


Orange Is the New Black S03E13


Orange Is the New Black S03E13

All episodes