Please register here if you want to download anything!

If domain in your address bar is different from the list below
PLEASE LEAVE THAT SITE IMMEDIATELY
❗IT'S A DANGEROUS FAKE❗



Spicy Magazines for Men! ;-)

Featured TV Shows


Jane the Virgin S05E05

Posted By: Tavaz
SD / HDTV IMDb
Jane the Virgin S05E05

Jane the Virgin S05E05
HDTV | MKV | 720x404 | English | H264 @ 785 kbps | AAC @ 113 kbps | 41 min 47 s | 270 MiB
Subtitles: English
Genre: Comedy, Drama


A comedy-drama following a chaste young woman who is accidentally impregnated via artificial insemination as she struggles to inform her devoutly religious family and make the right choices concerning the child. Based on the telenovela "Juana la virgen."

b5f511b42d2e4fd3a3b06854e5b4d852.mkv (269.8 MB)



General
Unique ID : 225884582627690375384496291390994171167 (0xA9EFC9C53C01EB1AC06B4485DDAAC51F)
Complete name : ./b5f511b42d2e4fd3a3b06854e5b4d852.mkv
Format : Matroska
Format version : Version 4 / Version 2
File size : 270 MiB
Duration : 41 min 47 s
Overall bit rate : 902 kb/s
Movie name : Jane.the.Virgin.S05E05.HDTV.x264-LucidTV
Encoded date : UTC 2019-04-25 02:37:51
Writing application : mkvmerge v24.0.0 ('Beyond The Pale') 64-bit
Writing library : libebml v1.3.6 + libmatroska v1.4.9

Video
ID : 1
Format : AVC
Format/Info : Advanced Video Codec
Format profile : High@L3.1
Format settings : CABAC / 5 Ref Frames
Format settings, CABAC : Yes
Format settings, RefFrames : 5 frames
Codec ID : V_MPEG4/ISO/AVC
Duration : 41 min 47 s
Bit rate : 786 kb/s
Width : 720 pixels
Height : 404 pixels
Display aspect ratio : 16:9
Frame rate mode : Constant
Frame rate : 23.976 (24000/1001) FPS
Color space : YUV
Chroma subsampling : 4:2:0
Bit depth : 8 bits
Scan type : Progressive
Bits/(Pixel*Frame) : 0.113
Stream size : 235 MiB (87%)
Writing library : x264 core 157 r2969 d4099dd
Encoding settings : cabac=1 / ref=5 / deblock=1:0:0 / analyse=0x3:0x113 / me=hex / subme=8 / psy=1 / psy_rd=1.00:0.00 / mixed_ref=1 / me_range=16 / chroma_me=1 / trellis=2 / 8x8dct=1 / cqm=0 / deadzone=21,11 / fast_pskip=1 / chroma_qp_offset=-2 / threads=13 / lookahead_threads=2 / sliced_threads=0 / nr=0 / decimate=1 / interlaced=0 / bluray_compat=0 / constrained_intra=0 / bframes=3 / b_pyramid=2 / b_adapt=1 / b_bias=0 / direct=3 / weightb=1 / open_gop=0 / weightp=2 / keyint=250 / keyint_min=23 / scenecut=40 / intra_refresh=0 / rc_lookahead=50 / rc=crf / mbtree=1 / crf=19.0 / qcomp=0.60 / qpmin=0 / qpmax=69 / qpstep=4 / ip_ratio=1.40 / aq=1:1.00
Language : English
Default : Yes
Forced : No
Color range : Limited
Matrix coefficients : BT.709

Audio
ID : 2
Format : AAC
Format/Info : Advanced Audio Codec
Format profile : LC
Codec ID : A_AAC-2
Duration : 41 min 47 s
Bit rate : 114 kb/s
Channel(s) : 2 channels
Channel positions : Front: L R
Sampling rate : 48.0 kHz
Frame rate : 46.875 FPS (1024 SPF)
Compression mode : Lossy
Delay relative to video : 20 ms
Stream size : 34.1 MiB (13%)
Language : English
Default : Yes
Forced : No

Text
ID : 3
Format : UTF-8
Codec ID : S_TEXT/UTF8
Codec ID/Info : UTF-8 Plain Text
Duration : 41 min 45 s
Bit rate : 126 b/s
Count of elements : 876
Stream size : 38.6 KiB (0%)
Language : English
Default : No
Forced : No





Jane the Virgin S05E05


Jane the Virgin S05E05


Jane the Virgin S05E05


Jane the Virgin S05E05


Jane the Virgin S05E05

All episodes