Featured TV Shows


Homecoming S02E07

Posted By: Tavaz
1080p (FullHD) / WEBRip IMDb
Homecoming S02E07

Homecoming S02E07
WEBRip | MKV | 1920x1080 | English | H264 @ 7918 kbps | E-AC-3 @ 640 kbps | 37 min 22 s | 2.23 GiB
Subtitles: English
Genre: Drama


Heidi Bergman is a caseworker at Homecoming, a Geist Group facility helping soldiers transition to civilian life. Years later she has started a new life, living with her mother and working as a waitress, when a Department of Defense auditor questions why she left the Homecoming facility. Heidi quickly realizes that there's a whole other story behind the story she's been telling herself.

fcea3eb20c911e8582f044f89061fc2b.mkv (2.2 GB)



General
Unique ID : 39055893831920915912416870748944818414 (0x1D61E43C330E5BC7B31E7062C63B60EE)
Complete name : ./fcea3eb20c911e8582f044f89061fc2b.mkv
Format : Matroska
Format version : Version 4 / Version 2
File size : 2.23 GiB
Duration : 37 min 22 s
Overall bit rate : 8 560 kb/s
Encoded date : UTC 2020-05-21 23:07:46
Writing application : mkvmerge v44.0.0 ('Domino') 64-bit
Writing library : libebml v1.3.10 + libmatroska v1.5.2

Video
ID : 1
Format : AVC
Format/Info : Advanced Video Codec
Format profile : High@L4
Format settings : CABAC / 4 Ref Frames
Format settings, CABAC : Yes
Format settings, RefFrames : 4 frames
Codec ID : V_MPEG4/ISO/AVC
Duration : 37 min 22 s
Bit rate : 7 918 kb/s
Width : 1 920 pixels
Height : 1 080 pixels
Display aspect ratio : 16:9
Frame rate mode : Constant
Frame rate : 23.976 (24000/1001) FPS
Color space : YUV
Chroma subsampling : 4:2:0
Bit depth : 8 bits
Scan type : Progressive
Bits/(Pixel*Frame) : 0.159
Stream size : 2.07 GiB (92%)
Default : Yes
Forced : No
Color range : Limited
Color primaries : BT.709
Transfer characteristics : BT.709
Matrix coefficients : BT.709

Audio
ID : 2
Format : E-AC-3
Format/Info : Enhanced Audio Coding 3
Format settings, Endianness : Big
Codec ID : A_EAC3
Duration : 37 min 22 s
Bit rate mode : Constant
Bit rate : 640 kb/s
Channel(s) : 6 channels
Channel positions : Front: L C R, Side: L R, LFE
Sampling rate : 48.0 kHz
Frame rate : 187.500 FPS (256 SPF)
Compression mode : Lossy
Stream size : 171 MiB (7%)
Title : English
Language : English
Service kind : Complete Main
Default : No
Forced : No

Text #1
ID : 3
Format : UTF-8
Codec ID : S_TEXT/UTF8
Codec ID/Info : UTF-8 Plain Text
Duration : 36 min 0 s
Bit rate : 47 b/s
Count of elements : 501
Stream size : 12.6 KiB (0%)
Title : English
Language : English
Default : No
Forced : No

Text #2
ID : 4
Format : UTF-8
Codec ID : S_TEXT/UTF8
Codec ID/Info : UTF-8 Plain Text
Duration : 36 min 59 s
Bit rate : 51 b/s
Count of elements : 561
Stream size : 13.9 KiB (0%)
Title : English SDH
Language : English
Default : No
Forced : No

Menu
00:00:00.000 : en:Amazon Original
00:00:05.000 : en:Opening Credits
00:00:16.000 : en:Walter panics
00:01:21.000 : en:Title Sequence
00:01:26.000 : en:A trip to headquarters
00:03:15.000 : en:Audrey confronts Leonard
00:05:15.000 : en:It all comes together
00:08:23.000 : en:Memory loss
00:11:02.000 : en:Walter and Leonard talk
00:13:03.000 : en:Alex gets answers
00:15:49.000 : en:Walter wants help
00:20:00.000 : en:The party takes a turn
00:24:27.000 : en:The drug works quickly
00:27:45.000 : en:The power of stubborness
00:31:14.000 : en:Nobody should wake up alone
00:34:32.000 : en:End Credits





Homecoming S02E07


Homecoming S02E07


Homecoming S02E07


Homecoming S02E07


Homecoming S02E07

All episodes