Featured TV Shows


Homecoming S02E06

Posted By: Tavaz
720p (HD) / WEBRip IMDb
Homecoming S02E06

Homecoming S02E06
WEBRip | MKV | 1280x720 | English | H264 @ 4611 kbps | E-AC-3 @ 640 kbps | 24 min 3 s | 904 MiB
Subtitles: English
Genre: Drama


Heidi Bergman is a caseworker at Homecoming, a Geist Group facility helping soldiers transition to civilian life. Years later she has started a new life, living with her mother and working as a waitress, when a Department of Defense auditor questions why she left the Homecoming facility. Heidi quickly realizes that there's a whole other story behind the story she's been telling herself.

72a1df1e0038b2674ca72ab2e2766e2e.mkv (904.2 MB)



General
Unique ID : 70655666039435303656359585514100513089 (0x3527C94ABBDA3FD361487C1E8CF65941)
Complete name : ./72a1df1e0038b2674ca72ab2e2766e2e.mkv
Format : Matroska
Format version : Version 4 / Version 2
File size : 904 MiB
Duration : 24 min 3 s
Overall bit rate : 5 254 kb/s
Encoded date : UTC 2020-05-21 23:08:09
Writing application : mkvmerge v44.0.0 ('Domino') 64-bit
Writing library : libebml v1.3.10 + libmatroska v1.5.2

Video
ID : 1
Format : AVC
Format/Info : Advanced Video Codec
Format profile : High@L3.1
Format settings : CABAC / 4 Ref Frames
Format settings, CABAC : Yes
Format settings, RefFrames : 4 frames
Codec ID : V_MPEG4/ISO/AVC
Duration : 24 min 3 s
Bit rate mode : Constant
Bit rate : 4 612 kb/s
Nominal bit rate : 6 000 kb/s
Width : 1 280 pixels
Height : 720 pixels
Display aspect ratio : 16:9
Frame rate mode : Constant
Frame rate : 23.976 (24000/1001) FPS
Color space : YUV
Chroma subsampling : 4:2:0
Bit depth : 8 bits
Scan type : Progressive
Bits/(Pixel*Frame) : 0.209
Stream size : 794 MiB (88%)
Default : Yes
Forced : No
Color range : Limited
Color primaries : BT.709
Transfer characteristics : BT.709
Matrix coefficients : BT.709

Audio
ID : 2
Format : E-AC-3
Format/Info : Enhanced Audio Coding 3
Format settings, Endianness : Big
Codec ID : A_EAC3
Duration : 24 min 3 s
Bit rate mode : Constant
Bit rate : 640 kb/s
Channel(s) : 6 channels
Channel positions : Front: L C R, Side: L R, LFE
Sampling rate : 48.0 kHz
Frame rate : 187.500 FPS (256 SPF)
Compression mode : Lossy
Stream size : 110 MiB (12%)
Title : English
Language : English
Service kind : Complete Main
Default : No
Forced : No

Text #1
ID : 3
Format : UTF-8
Codec ID : S_TEXT/UTF8
Codec ID/Info : UTF-8 Plain Text
Duration : 21 min 14 s
Bit rate : 49 b/s
Count of elements : 336
Stream size : 7.75 KiB (0%)
Title : English
Language : English
Default : No
Forced : No

Text #2
ID : 4
Format : UTF-8
Codec ID : S_TEXT/UTF8
Codec ID/Info : UTF-8 Plain Text
Duration : 23 min 45 s
Bit rate : 52 b/s
Count of elements : 399
Stream size : 9.13 KiB (0%)
Title : English SDH
Language : English
Default : No
Forced : No

Menu
00:00:00.000 : en:Amazon Original
00:00:05.000 : en:Opening Credits
00:00:16.000 : en:Returning from the store
00:01:03.000 : en:Title Sequence
00:01:10.000 : en:Alex practices talking to Walter
00:02:50.000 : en:Going to Walter's house
00:04:30.000 : en:A warning call
00:05:11.000 : en:Apologies
00:07:29.000 : en:Walter keeps asking questions
00:13:49.000 : en:Walter lists out the facts
00:20:01.000 : en:Audrey goes home for the night
00:21:24.000 : en:End Credits





Homecoming S02E06


Homecoming S02E06


Homecoming S02E06


Homecoming S02E06


Homecoming S02E06

All episodes