Featured TV Shows


Homecoming S02E05

Posted By: Tavaz
720p (HD) / WEBRip IMDb
Homecoming S02E05

Homecoming S02E05
WEBRip | MKV | 1280x720 | English | H264 @ 4271 kbps | E-AC-3 @ 640 kbps | 34 min 55 s | 1.20 GiB
Subtitles: English
Genre: Drama


Heidi Bergman is a caseworker at Homecoming, a Geist Group facility helping soldiers transition to civilian life. Years later she has started a new life, living with her mother and working as a waitress, when a Department of Defense auditor questions why she left the Homecoming facility. Heidi quickly realizes that there's a whole other story behind the story she's been telling herself.

b8420d0d8e29b2c0df54ec48fd13543c.mkv (1.2 GB)



General
Unique ID : 250390235469561282193329036400929539621 (0xBC5F67BCF9F089DBB00E937D0B380625)
Complete name : ./b8420d0d8e29b2c0df54ec48fd13543c.mkv
Format : Matroska
Format version : Version 4 / Version 2
File size : 1.20 GiB
Duration : 34 min 55 s
Overall bit rate : 4 914 kb/s
Encoded date : UTC 2020-05-21 23:07:45
Writing application : mkvmerge v44.0.0 ('Domino') 64-bit
Writing library : libebml v1.3.10 + libmatroska v1.5.2

Video
ID : 1
Format : AVC
Format/Info : Advanced Video Codec
Format profile : High@L3.1
Format settings : CABAC / 4 Ref Frames
Format settings, CABAC : Yes
Format settings, RefFrames : 4 frames
Codec ID : V_MPEG4/ISO/AVC
Duration : 34 min 55 s
Bit rate mode : Constant
Bit rate : 4 272 kb/s
Nominal bit rate : 6 000 kb/s
Width : 1 280 pixels
Height : 720 pixels
Display aspect ratio : 16:9
Frame rate mode : Constant
Frame rate : 23.976 (24000/1001) FPS
Color space : YUV
Chroma subsampling : 4:2:0
Bit depth : 8 bits
Scan type : Progressive
Bits/(Pixel*Frame) : 0.193
Stream size : 1.04 GiB (87%)
Default : Yes
Forced : No
Color range : Limited
Color primaries : BT.709
Transfer characteristics : BT.709
Matrix coefficients : BT.709

Audio
ID : 2
Format : E-AC-3
Format/Info : Enhanced Audio Coding 3
Format settings, Endianness : Big
Codec ID : A_EAC3
Duration : 34 min 55 s
Bit rate mode : Constant
Bit rate : 640 kb/s
Channel(s) : 6 channels
Channel positions : Front: L C R, Side: L R, LFE
Sampling rate : 48.0 kHz
Frame rate : 187.500 FPS (256 SPF)
Compression mode : Lossy
Stream size : 160 MiB (13%)
Title : English
Language : English
Service kind : Complete Main
Default : No
Forced : No

Text #1
ID : 3
Format : UTF-8
Codec ID : S_TEXT/UTF8
Codec ID/Info : UTF-8 Plain Text
Duration : 34 min 6 s
Bit rate : 66 b/s
Count of elements : 596
Stream size : 16.6 KiB (0%)
Title : English
Language : English
Default : No
Forced : No

Text #2
ID : 4
Format : UTF-8
Codec ID : S_TEXT/UTF8
Codec ID/Info : UTF-8 Plain Text
Duration : 34 min 36 s
Bit rate : 70 b/s
Count of elements : 644
Stream size : 17.9 KiB (0%)
Title : English SDH
Language : English
Default : No
Forced : No

Menu
00:00:00.000 : en:Amazon Original
00:00:05.000 : en:Opening Credits
00:00:19.000 : en:Walter waits in jail
00:01:07.000 : en:Title Sequence
00:01:12.000 : en:Getting bailed out
00:04:33.000 : en:Audrey contemplates her choices
00:04:57.000 : en:Pulling up plants
00:05:17.000 : en:A legal injunction
00:09:39.000 : en:Figuring out what happened to Walter
00:16:04.000 : en:Alex checks in with Audrey
00:17:20.000 : en:Another round of drinks
00:17:50.000 : en:Let the best idea win
00:21:28.000 : en:Talking to the employees
00:23:44.000 : en:Walter pushes for information
00:29:04.000 : en:A goodnight phone call
00:32:04.000 : en:End Credits





Homecoming S02E05


Homecoming S02E05


Homecoming S02E05


Homecoming S02E05


Homecoming S02E05

All episodes