Featured TV Shows


Homecoming S02E04

Posted By: Tavaz
1080p (FullHD) / WEBRip IMDb
Homecoming S02E04

Homecoming S02E04
WEBRip | MKV | 1920x1080 | English | H264 @ 8709 kbps | E-AC-3 @ 640 kbps | 28 min 40 s | 1.87 GiB
Subtitles: English
Genre: Drama


Heidi Bergman is a caseworker at Homecoming, a Geist Group facility helping soldiers transition to civilian life. Years later she has started a new life, living with her mother and working as a waitress, when a Department of Defense auditor questions why she left the Homecoming facility. Heidi quickly realizes that there's a whole other story behind the story she's been telling herself.

b5065578b5f86d02c92b5982d34e6055.mkv (1.9 GB)



General
Unique ID : 132385788293182895893119878246136202099 (0x6398934CA96677CAD2FA76126C72C373)
Complete name : ./b5065578b5f86d02c92b5982d34e6055.mkv
Format : Matroska
Format version : Version 4 / Version 2
File size : 1.87 GiB
Duration : 28 min 40 s
Overall bit rate : 9 352 kb/s
Encoded date : UTC 2020-05-21 23:05:56
Writing application : mkvmerge v44.0.0 ('Domino') 64-bit
Writing library : libebml v1.3.10 + libmatroska v1.5.2

Video
ID : 1
Format : AVC
Format/Info : Advanced Video Codec
Format profile : High@L4
Format settings : CABAC / 4 Ref Frames
Format settings, CABAC : Yes
Format settings, RefFrames : 4 frames
Codec ID : V_MPEG4/ISO/AVC
Duration : 28 min 40 s
Bit rate mode : Constant
Bit rate : 8 710 kb/s
Nominal bit rate : 10 000 kb/s
Width : 1 920 pixels
Height : 1 080 pixels
Display aspect ratio : 16:9
Frame rate mode : Constant
Frame rate : 23.976 (24000/1001) FPS
Color space : YUV
Chroma subsampling : 4:2:0
Bit depth : 8 bits
Scan type : Progressive
Bits/(Pixel*Frame) : 0.175
Stream size : 1.74 GiB (93%)
Default : Yes
Forced : No
Color range : Limited
Color primaries : BT.709
Transfer characteristics : BT.709
Matrix coefficients : BT.709

Audio
ID : 2
Format : E-AC-3
Format/Info : Enhanced Audio Coding 3
Format settings, Endianness : Big
Codec ID : A_EAC3
Duration : 28 min 40 s
Bit rate mode : Constant
Bit rate : 640 kb/s
Channel(s) : 6 channels
Channel positions : Front: L C R, Side: L R, LFE
Sampling rate : 48.0 kHz
Frame rate : 187.500 FPS (256 SPF)
Compression mode : Lossy
Stream size : 131 MiB (7%)
Title : English
Language : English
Service kind : Complete Main
Default : No
Forced : No

Text #1
ID : 3
Format : UTF-8
Codec ID : S_TEXT/UTF8
Codec ID/Info : UTF-8 Plain Text
Duration : 26 min 38 s
Bit rate : 69 b/s
Count of elements : 512
Stream size : 13.5 KiB (0%)
Title : English
Language : English
Default : No
Forced : No

Text #2
ID : 4
Format : UTF-8
Codec ID : S_TEXT/UTF8
Codec ID/Info : UTF-8 Plain Text
Duration : 28 min 21 s
Bit rate : 70 b/s
Count of elements : 566
Stream size : 14.6 KiB (0%)
Title : English SDH
Language : English
Default : No
Forced : No

Menu
00:00:00.000 : en:Amazon Original
00:00:05.000 : en:Opening Credits
00:00:16.000 : en:Looking through the catalog
00:00:58.000 : en:Title Sequence
00:01:01.000 : en:An interview with the DOD
00:03:18.000 : en:Waiting rooms
00:03:49.000 : en:Geist wants to shift the company
00:09:02.000 : en:Requesting records
00:11:50.000 : en:Touring the facility
00:15:48.000 : en:Discussing job opportunities
00:19:12.000 : en:An unexpected complication
00:24:11.000 : en:Coming for Walter
00:25:52.000 : en:End Credits





Homecoming S02E04


Homecoming S02E04


Homecoming S02E04


Homecoming S02E04


Homecoming S02E04

All episodes