Featured TV Shows


Homecoming S02E03

Posted By: Tavaz
1080p (FullHD) / WEBRip IMDb
Homecoming S02E03

Homecoming S02E03
WEBRip | MKV | 1920x1080 | English | H264 @ 8944 kbps | E-AC-3 @ 640 kbps | 28 min 54 s | 1.94 GiB
Subtitles: English
Genre: Drama


Heidi Bergman is a caseworker at Homecoming, a Geist Group facility helping soldiers transition to civilian life. Years later she has started a new life, living with her mother and working as a waitress, when a Department of Defense auditor questions why she left the Homecoming facility. Heidi quickly realizes that there's a whole other story behind the story she's been telling herself.

b0f7c5fc410b5378e2ce03799d6d1ba0.mkv (1.9 GB)



General
Unique ID : 108215415540207210036798907966758270997 (0x516987EA973507BE3BFEFBA6972B3815)
Complete name : ./b0f7c5fc410b5378e2ce03799d6d1ba0.mkv
Format : Matroska
Format version : Version 4 / Version 2
File size : 1.94 GiB
Duration : 28 min 54 s
Overall bit rate : 9 587 kb/s
Encoded date : UTC 2020-05-21 23:04:57
Writing application : mkvmerge v44.0.0 ('Domino') 64-bit
Writing library : libebml v1.3.10 + libmatroska v1.5.2

Video
ID : 1
Format : AVC
Format/Info : Advanced Video Codec
Format profile : High@L4
Format settings : CABAC / 4 Ref Frames
Format settings, CABAC : Yes
Format settings, RefFrames : 4 frames
Codec ID : V_MPEG4/ISO/AVC
Duration : 28 min 54 s
Bit rate mode : Constant
Bit rate : 8 945 kb/s
Nominal bit rate : 10 000 kb/s
Width : 1 920 pixels
Height : 1 080 pixels
Display aspect ratio : 16:9
Frame rate mode : Constant
Frame rate : 23.976 (24000/1001) FPS
Color space : YUV
Chroma subsampling : 4:2:0
Bit depth : 8 bits
Scan type : Progressive
Bits/(Pixel*Frame) : 0.180
Stream size : 1.81 GiB (93%)
Default : Yes
Forced : No
Color range : Limited
Color primaries : BT.709
Transfer characteristics : BT.709
Matrix coefficients : BT.709

Audio
ID : 2
Format : E-AC-3
Format/Info : Enhanced Audio Coding 3
Format settings, Endianness : Big
Codec ID : A_EAC3
Duration : 28 min 54 s
Bit rate mode : Constant
Bit rate : 640 kb/s
Channel(s) : 6 channels
Channel positions : Front: L C R, Side: L R, LFE
Sampling rate : 48.0 kHz
Frame rate : 187.500 FPS (256 SPF)
Compression mode : Lossy
Stream size : 132 MiB (7%)
Title : English
Language : English
Service kind : Complete Main
Default : No
Forced : No

Text #1
ID : 3
Format : UTF-8
Codec ID : S_TEXT/UTF8
Codec ID/Info : UTF-8 Plain Text
Duration : 26 min 4 s
Bit rate : 67 b/s
Count of elements : 548
Stream size : 12.9 KiB (0%)
Title : English
Language : English
Default : No
Forced : No

Text #2
ID : 4
Format : UTF-8
Codec ID : S_TEXT/UTF8
Codec ID/Info : UTF-8 Plain Text
Duration : 28 min 37 s
Bit rate : 72 b/s
Count of elements : 640
Stream size : 15.2 KiB (0%)
Title : English SDH
Language : English
Default : No
Forced : No

Menu
00:00:00.000 : en:Amazon Original
00:00:05.000 : en:Opening Credits
00:00:23.000 : en:Meeting with a client
00:03:08.000 : en:Title Sequence
00:03:16.000 : en:Alex is in crisis management
00:05:11.000 : en:Marketing strategy
00:07:08.000 : en:A warning phone call
00:08:31.000 : en:Audrey has an idea
00:10:47.000 : en:A meeting with Colin
00:13:12.000 : en:Approaching Geist
00:15:34.000 : en:Understanding the Homecoming program
00:18:55.000 : en:An overview into Alex's job
00:19:58.000 : en:Celebration at home
00:21:40.000 : en:Having flashbacks
00:23:18.000 : en:Hospital examination
00:24:21.000 : en:Trying to remember
00:26:06.000 : en:End Credits





Homecoming S02E03


Homecoming S02E03


Homecoming S02E03


Homecoming S02E03


Homecoming S02E03

All episodes